<?xml version="1.0" standalone="no"?>
<!DOCTYPE svg PUBLIC "-//W3C//DTD SVG 1.1//EN" "http://www.w3.org/Graphics/SVG/1.1/DTD/svg11.dtd">
<svg xmlns="http://www.w3.org/2000/svg">
<defs >
<font id="OldStandardTT" horiz-adv-x="617" ><font-face
    font-family="Old Standard TT"
    units-per-em="1000"
    panose-1="0 0 8 0 0 0 0 0 0 0"
    ascent="762"
    descent="-238"
    alphabetic="0" />
<glyph unicode=" " glyph-name="space" horiz-adv-x="280" />
<glyph unicode="!" glyph-name="exclam" horiz-adv-x="280" d="M112 350Q109 384 85 477Q72 526 65 562T58 632Q58 678 81 704T140 730Q176 730 199 704T222 632Q222 599 215 563T195 477Q173 392 168 350L152 205H128L112 350ZM106 -12T84 10T62 66Q62 100 84
122T140 144Q174 144 196 122T218 66Q218 32 196 10T140 -12Q106 -12 84 10Z" />
<glyph unicode="&quot;" glyph-name="quotedbl" horiz-adv-x="394" d="M77 621Q72 656 72 672Q72 699 85 714T120 730Q142 730 155 715T168 672Q168 656 163 621L142 482H98L77 621ZM231 621Q226 656 226 672Q226 699 239 714T274 730Q296 730 309 715T322 672Q322
656 317 621L296 482H252L231 621Z" />
<glyph unicode="#" glyph-name="numbersign" horiz-adv-x="712" d="M150 0L179 182H66V246H189L223 464H72V528H233L262 712H328L299 528H465L494 712H560L531 528H646V464H521L487 246H637V182H477L448 0H382L410 182H245L216 0H150ZM255 246H421L455 464H289L255 246Z" />
<glyph unicode="$" glyph-name="dollar" horiz-adv-x="580" d="M226 -9Q151 5 102 47T52 166Q52 207 74 233T131 260Q153 260 168 245T184 210Q184 184 175 172T141 145Q124 135 119 128T114 108Q114 80 145 58T226 24V320L173 353Q76 413 76 527Q76 607 118 654T226
718V796H258V725Q282 728 304 728Q318 728 342 726V796H374V721Q443 707 485 668T528 566Q528 524 508 491T456 458Q430 458 415 472T399 508Q399 527 410 541T438 563Q459 573 467 581T476 603Q476 629 449 652T374 688V399L413 375Q467 341 496 296T526 189Q526
109 484 60T374 -7V-84H342V-13Q321 -16 301 -16Q273 -16 258 -14V-84H226V-9ZM342 693Q323 696 300 696Q275 696 258 692V471L342 419V693ZM226 682Q192 669 172 645T152 589Q152 534 226 491V682ZM324 16T342 19V248L258 300V18Q286 16 301 16Q324 16 342 19ZM412
41T429 67T446 121Q446 161 425 185T374 228V27Q412 41 429 67Z" />
<glyph unicode="%" glyph-name="percent" horiz-adv-x="860" d="M194 364T162 386T110 450T90 546Q90 600 109 642T161 707T230 730Q266 730 299 707T352 642T372 546Q372 492 352 451T300 387T230 364Q194 364 162 386ZM188 -18L620 730H670L238 -18H188ZM255
384T265 420T276 546Q276 636 265 673T230 710Q206 710 196 674T186 546Q186 455 196 420T230 384Q255 384 265 420ZM592 -16T560 6T508 70T488 166Q488 220 507 262T559 327T628 350Q664 350 697 327T750 262T770 166Q770 112 750 71T698 7T628 -16Q592 -16 560
6ZM653 4T663 40T674 166Q674 256 663 293T628 330Q604 330 594 294T584 166Q584 75 594 40T628 4Q653 4 663 40Z" />
<glyph unicode="&amp;" glyph-name="ampersand" horiz-adv-x="786" d="M158 -18T101 23T44 141Q44 205 91 261T230 382L253 398L242 415Q215 457 204 488T192 566Q192 617 215 654T277 711T361 731Q403 731 429 712T468 664T480 607Q480 554 451 515T363 433L539
169Q569 205 588 247T607 318Q607 337 596 347T569 358H531V390H742V358H734Q680 358 646 286Q601 192 558 142Q588 92 609 67T655 42Q675 42 690 59T720 105L740 95Q726 55 690 19T603 -18Q570 -18 536 3T477 61Q440 31 375 7T248 -18Q158 -18 101 23ZM389 497T412
530T436 615Q436 651 416 675T362 699Q331 699 308 678T284 622Q284 580 295 553T344 463Q389 497 412 530ZM374 42T404 54T459 88L273 369Q239 338 221 315T193 263T184 193Q184 147 207 113T267 60T340 42Q374 42 404 54Z" />
<glyph unicode="&apos;" glyph-name="quotesingle" horiz-adv-x="240" d="M77 621Q72 656 72 672Q72 699 85 714T120 730Q142 730 155 715T168 672Q168 656 163 621L142 482H98L77 621Z" />
<glyph unicode="(" glyph-name="parenleft" horiz-adv-x="370" d="M203 -112T132 5T60 266Q60 410 131 527T338 730L354 704Q265 633 231 567T196 408V124Q196 31 230 -35T354 -172L338 -198Q203 -112 132 5Z" />
<glyph unicode=")" glyph-name="parenright" horiz-adv-x="370" d="M16 -172Q105 -101 139 -35T174 124V408Q174 501 140 567T16 704L32 730Q167 644 238 527T310 266Q310 122 239 5T32 -198L16 -172Z" />
<glyph unicode="*" glyph-name="asterisk" horiz-adv-x="502" d="M235 290T222 303T209 335Q209 360 224 384Q243 419 243 453Q243 462 242 465T235 468Q230 468 221 462Q196 443 174 410Q146 369 116 369Q97 369 84 382T70 415Q70 439 88 453T139 467Q186 467
213 484Q215 485 219 488T223 495Q223 499 219 502T213 506Q186 523 139 523Q107 523 89 537T70 575Q70 594 83 607T116 621Q146 621 174 580Q196 547 221 528Q230 522 235 522Q240 522 241 525T243 537Q243 571 224 606Q209 630 209 655Q209 674 222 687T255 700Q275
700 288 687T301 655Q301 630 286 606Q267 571 267 537Q267 528 268 525T275 522Q280 522 289 528Q314 547 336 580Q364 621 394 621Q413 621 426 608T440 575Q440 551 422 537T371 523Q324 523 297 506Q295 505 291 502T287 495Q287 491 291 488T297 484Q324 467
371 467Q403 467 421 453T440 415Q440 396 427 383T394 369Q364 369 336 410Q314 443 289 462Q280 468 275 468Q270 468 269 465T267 453Q267 419 286 384Q301 360 301 335Q301 316 288 303T255 290Q235 290 222 303Z" />
<glyph unicode="+" glyph-name="plus" horiz-adv-x="940" d="M436 -156V240H42V304H436V700H504V304H898V240H504V-156H436Z" />
<glyph unicode="," glyph-name="comma" horiz-adv-x="280" d="M52 -168Q115 -145 153 -102T192 -10Q192 -3 188 2T175 8Q167 8 151 0Q133 -9 117 -9Q89 -9 68 10T46 63Q46 103 72 125T132 148Q181 148 209 116T238 32Q238 -50 191 -109T66 -196L52 -168Z" />
<glyph unicode="-" glyph-name="hyphen" horiz-adv-x="370" d="M56 208V310H314V208H56Z" />
<glyph unicode="." glyph-name="period" horiz-adv-x="280" d="M106 -12T84 10T62 66Q62 100 84 122T140 144Q174 144 196 122T218 66Q218 32 196 10T140 -12Q106 -12 84 10Z" />
<glyph unicode="/" glyph-name="slash" horiz-adv-x="450" d="M50 -198L332 730H400L118 -198H50Z" />
<glyph unicode="0" glyph-name="zero" horiz-adv-x="580" d="M218 -16T164 40T80 182T50 356Q50 443 79 529T163 672T290 728Q362 728 416 672T500 530T530 356Q530 269 501 183T417 40T290 -16Q218 -16 164 40ZM327 16T343 56T360 144V568Q360 615 344 655T290
696Q253 696 237 656T220 568V144Q220 97 236 57T290 16Q327 16 343 56Z" />
<glyph unicode="1" glyph-name="one" horiz-adv-x="580" d="M120 32H192Q206 32 211 37T216 56V603H120V639H157Q201 639 238 658T289 712H364V56Q364 43 369 38T388 32H460V0H120V32Z" />
<glyph unicode="2" glyph-name="two" horiz-adv-x="580" d="M272 -16T206 58Q187 79 175 87T144 96Q130 96 121 88T112 64V0H72V47Q72 86 79 120T115 201T201 303Q274 374 314 432T354 560Q354 616 331 654T253 692Q215 692 190 668T164 610Q164 570 192 550Q214
534 225 519T237 480Q237 454 218 437T170 420Q127 420 96 451T64 534Q64 587 92 631T170 702T280 728Q390 728 447 678T504 544Q504 487 469 441T383 362T255 287Q212 263 174 226T122 137L126 135Q162 164 207 164Q225 164 250 159T293 148Q343 132 384 132Q420
132 444 153T468 204Q468 233 463 271H494Q500 228 500 193Q500 142 484 95T430 16T336 -16Q272 -16 206 58Z" />
<glyph unicode="3" glyph-name="three" horiz-adv-x="580" d="M167 -16T112 26T56 141Q56 182 83 212T152 243Q186 243 206 224T226 177Q226 128 180 108Q169 103 161 94T152 74Q152 47 178 32T250 16Q356 16 356 193Q356 276 327 316T255 356H154V392H253Q300
392 321 427T343 538Q343 629 322 662T256 696Q218 696 191 675T164 619Q164 597 194 577Q229 554 229 517Q229 493 212 475T164 457Q127 457 101 486T74 561Q74 611 100 649T170 707T268 728Q369 728 431 680T493 550Q493 479 445 437T329 381V372Q376 368 419
344T489 279T516 189Q516 90 445 37T253 -16Q167 -16 112 26Z" />
<glyph unicode="4" glyph-name="four" horiz-adv-x="580" d="M150 32H246Q260 32 265 37T270 56V204H50V241L313 713H418V240H526V204H418V56Q418 43 423 38T442 32H514V0H150V32ZM100 240H270V544L100 240Z" />
<glyph unicode="5" glyph-name="five" horiz-adv-x="580" d="M211 -16T168 4T100 60T76 138Q76 169 90 193T127 231T173 245Q205 245 222 226T239 180Q239 140 196 118Q166 107 166 76Q166 53 191 35T264 16Q321 16 338 71T356 221Q356 293 348 335T319 399T259
420Q240 420 214 407T167 370T138 318H112V703L132 716Q194 678 270 678Q309 678 356 691T440 728L458 710Q405 631 325 594T152 556V400L158 398Q185 426 216 439T286 452Q355 452 407 424T487 344T516 224Q516 151 482 97T391 13T267 -16Q211 -16 168 4Z" />
<glyph unicode="6" glyph-name="six" horiz-adv-x="580" d="M240 -16T186 32T102 161T72 339Q72 454 104 542T198 679T342 728Q389 728 423 709T474 658T492 592Q492 549 467 519T402 489Q372 489 354 507T335 556Q335 602 380 618Q400 625 410 632T420 650Q420
670 399 683T341 696Q285 696 259 648T232 533V390L238 387Q254 403 280 411T335 420Q435 420 484 361T534 210Q534 153 511 102T438 17T314 -16Q240 -16 186 32ZM347 16T362 39T382 99T386 200Q386 281 373 331T322 382Q268 382 248 340Q238 321 235 287T232 195Q232
104 251 60T313 16Q347 16 362 39Z" />
<glyph unicode="7" glyph-name="seven" horiz-adv-x="580" d="M257 -16T234 12T210 88Q210 148 239 201T322 316Q400 406 438 470Q463 514 474 563L470 566Q439 540 401 540Q361 540 314 558Q272 572 232 572Q191 572 165 552T135 488L130 428H94L117 712H153L148
646L152 644Q210 720 279 720Q310 720 330 704T372 657Q392 628 408 612T440 596Q472 596 472 626Q472 644 452 656Q427 670 427 693Q427 705 435 712T457 720Q483 720 499 690T516 628Q516 563 497 510T437 389Q399 326 385 250T370 87Q370 35 350 10T293 -16Q257
-16 234 12Z" />
<glyph unicode="8" glyph-name="eight" horiz-adv-x="580" d="M230 -16T177 6T90 69T56 167Q56 230 93 274T177 338V340Q70 403 70 521Q70 587 104 634T192 704T302 728Q368 728 412 703T477 641T498 569Q498 519 467 478T392 415V411L411 401Q470 372 504 322T538
221Q538 156 509 102T423 16T286 -16Q230 -16 177 6ZM404 442T427 480T450 564Q450 605 429 635T376 680T309 696Q255 696 209 670T162 588Q162 548 180 527T233 489L364 426Q404 442 427 480ZM357 16T391 32T443 76T462 134Q462 174 437 200T372 246L206 328Q166
306 145 276T124 183Q124 119 156 82T232 30T313 16Q357 16 391 32Z" />
<glyph unicode="9" glyph-name="nine" horiz-adv-x="580" d="M211 -16T177 3T126 54T108 120Q108 163 133 193T198 223Q228 223 246 205T265 156Q265 110 220 94Q200 87 190 80T180 62Q180 42 201 29T259 16Q315 16 341 64T368 179V322L362 325Q346 309 320 301T265
292Q165 292 116 351T66 502Q66 559 89 610T162 695T286 728Q360 728 414 680T498 551T528 373Q528 258 496 170T402 33T258 -16Q211 -16 177 3ZM332 330T352 372Q362 391 365 425T368 517Q368 608 349 652T287 696Q253 696 238 673T218 613T214 512Q214 431 227
381T278 330Q332 330 352 372Z" />
<glyph unicode=":" glyph-name="colon" horiz-adv-x="280" d="M106 330T84 352T62 408Q62 442 84 464T140 486Q174 486 196 464T218 408Q218 374 196 352T140 330Q106 330 84 352ZM106 -12T84 10T62 66Q62 100 84 122T140 144Q174 144 196 122T218 66Q218 32 196
10T140 -12Q106 -12 84 10Z" />
<glyph unicode=";" glyph-name="semicolon" horiz-adv-x="280" d="M106 330T84 352T62 408Q62 442 84 464T140 486Q174 486 196 464T218 408Q218 374 196 352T140 330Q106 330 84 352ZM52 -168Q115 -145 153 -102T192 -10Q192 -3 188 2T175 8Q167 8 151 0Q133
-9 117 -9Q89 -9 68 10T46 63Q46 103 72 125T132 148Q181 148 209 116T238 32Q238 -50 191 -109T66 -196L52 -168Z" />
<glyph unicode="&lt;" glyph-name="less" horiz-adv-x="940" d="M822 -156L84 252V292L822 700L854 644L180 272L854 -100L822 -156Z" />
<glyph unicode="=" glyph-name="equal" horiz-adv-x="940" d="M48 344V408H892V344H48ZM48 136V200H892V136H48Z" />
<glyph unicode="&gt;" glyph-name="greater" horiz-adv-x="940" d="M118 -156L86 -100L760 272L86 644L118 700L856 292V252L118 -156Z" />
<glyph unicode="?" glyph-name="question" horiz-adv-x="470" d="M205 176T178 197T150 257Q150 292 163 325T202 397Q237 451 253 494T270 601Q270 640 251 666T198 692Q158 692 132 660T106 584Q106 547 114 525T144 476L121 459Q96 490 84 518T72 586Q72 624
90 657T144 711T229 732Q276 732 313 713T371 662T392 588Q392 541 358 493T269 394Q227 355 206 325T184 256Q184 231 202 219T245 206Q271 206 286 224T301 272Q301 284 296 298L320 308Q325 297 327 290T329 271Q329 229 305 203T245 176Q205 176 178 197ZM214
-12T192 10T170 66Q170 100 192 122T248 144Q282 144 304 122T326 66Q326 32 304 10T248 -12Q214 -12 192 10Z" />
<glyph unicode="@" glyph-name="at" horiz-adv-x="820" d="M304 -18T222 27T92 156T44 347Q44 451 94 539T230 678T422 730Q529 730 609 683T732 558T776 386Q776 332 750 272T672 171T548 130Q511 130 485 150T455 206L451 207Q431 180 397 155T321 130Q272 130
236 162T200 254Q200 317 216 379T263 481Q304 532 347 555T432 578Q457 578 475 562T499 523H503L514 566H621L548 257Q543 230 543 214Q543 188 555 175T579 162Q620 162 648 199T690 290T704 397Q704 489 667 557T564 662T412 698Q331 698 263 653T156 527T116
344Q116 244 153 170T260 55T426 14Q474 14 518 31T594 70L609 43Q577 20 525 1T404 -18Q304 -18 222 27ZM382 154T413 208T459 335Q483 436 483 475Q483 511 472 532T442 554Q412 554 388 527T341 434Q327 395 318 336T308 223Q308 192 319 173T345 154Q382 154
413 208Z" />
<glyph unicode="A" glyph-name="A" horiz-adv-x="754" d="M44 32H78Q108 32 131 55T166 113L377 730H419L633 83Q650 32 692 32H732V0H381V32H453Q465 32 472 41T480 64Q480 75 474 93L442 189H232L211 128Q200 100 200 77Q200 59 214 46T252 32H299V0H44V32ZM245
226H430L339 501L245 226Z" />
<glyph unicode="B" glyph-name="B" horiz-adv-x="710" d="M62 32H132Q146 32 151 37T156 56V656Q156 670 151 675T132 680H62V712H414Q473 712 524 690T607 630T638 542Q638 476 589 435T469 375V369Q515 362 559 340T633 280T662 194Q662 133 630 89T545 23T427
0H62V32ZM396 388Q450 388 469 426T488 542Q488 607 465 643T402 680H328Q315 680 310 675T304 656V388H396ZM396 32Q449 32 475 67T502 194Q502 285 476 320T396 356H304V56Q304 43 309 38T328 32H396Z" />
<glyph unicode="C" glyph-name="C" horiz-adv-x="660" d="M267 -18T202 34T103 172T70 356Q70 457 104 542T201 679T350 730Q387 730 418 718T485 681Q508 666 519 666Q527 666 532 670T541 685L559 722H592V415H560Q537 544 481 621T350 698Q303 698 272 652T240
506V206Q240 107 275 61T360 14Q479 14 537 123Q566 176 576 275H612Q609 231 599 187T571 109Q540 49 487 16T360 -18Q267 -18 202 34Z" />
<glyph unicode="D" glyph-name="D" horiz-adv-x="786" d="M62 32H132Q146 32 151 37T156 56V656Q156 670 151 675T132 680H62V712H434Q517 712 586 668T695 544T736 362Q736 260 696 177T586 47T434 0H62V32ZM417 32Q481 32 523 76T566 206V506Q566 591 524 635T417
680H328Q315 680 310 675T304 656V56Q304 43 309 38T328 32H417Z" />
<glyph unicode="E" glyph-name="E" horiz-adv-x="690" d="M62 32H132Q146 32 151 37T156 56V656Q156 670 151 675T132 680H62V712H624L630 480H598Q598 487 588 525T558 594Q535 634 505 657T438 680H328Q315 680 310 675T304 656V380H355Q382 380 405 402T441
456T455 518H487V205H455Q455 235 442 267T405 322T355 344H304V56Q304 43 309 38T328 32H437Q492 32 529 76T585 174Q593 197 599 231T606 276H638L632 0H62V32Z" />
<glyph unicode="F" glyph-name="F" horiz-adv-x="670" d="M62 32H132Q146 32 151 37T156 56V656Q156 670 151 675T132 680H62V712H626L634 438H602Q602 446 592 492T566 571Q545 616 510 648T430 680H328Q315 680 310 675T304 656V380H355Q382 380 405 402T441
456T455 518H487V205H455Q455 235 442 267T405 322T355 344H304V56Q304 43 309 38T328 32H419V0H62V32Z" />
<glyph unicode="G" glyph-name="G" horiz-adv-x="720" d="M265 -18T202 33T104 169T70 356Q70 456 108 542T214 679T368 730Q411 730 442 718T510 681Q533 666 544 666Q557 666 566 685L583 722H616V434H585Q550 561 496 629T368 698Q307 698 274 654T240 506V206Q240
14 350 14Q402 14 435 58T468 161V298Q468 312 463 317T444 322H356V354H688V322H640Q627 322 622 317T616 298V-13H584L560 78Q557 88 551 95T536 103Q518 103 505 82Q480 44 440 13T350 -18Q265 -18 202 33Z" />
<glyph unicode="H" glyph-name="H" horiz-adv-x="824" d="M62 32H132Q146 32 151 37T156 56V656Q156 670 151 675T132 680H62V712H398V680H328Q315 680 310 675T304 656V392H540V656Q540 670 535 675T516 680H444V712H782V680H712Q699 680 694 675T688 656V56Q688
43 693 38T712 32H782V0H446V32H516Q530 32 535 37T540 56V356H304V56Q304 43 309 38T328 32H398V0H62V32Z" />
<glyph unicode="I" glyph-name="I" horiz-adv-x="440" d="M62 32H132Q146 32 151 37T156 56V656Q156 670 151 675T132 680H62V712H398V680H328Q315 680 310 675T304 656V56Q304 43 309 38T328 32H398V0H62V32Z" />
<glyph unicode="J" glyph-name="J" horiz-adv-x="540" d="M165 -18T125 2T60 60T36 154Q36 189 49 215T83 256T126 271Q158 271 177 251T197 202Q197 168 179 148T136 118Q119 112 112 103T104 76Q104 63 116 48T151 24T202 14Q278 14 278 130V656Q278 670 273
675T254 680H174V712H512V680H450Q437 680 432 675T426 656V194Q426 129 395 81T316 8T214 -18Q165 -18 125 2Z" />
<glyph unicode="K" glyph-name="K" horiz-adv-x="770" d="M62 32H132Q146 32 151 37T156 56V656Q156 670 151 675T132 680H62V712H390V680H328Q315 680 310 675T304 656V360L497 584Q511 600 516 611T522 638Q522 656 512 668T486 680H457V712H704V680H669Q648
680 626 666T586 630L452 475L663 76Q676 51 688 42T723 32H750V0H436V32H476Q485 32 491 38T497 53Q497 59 496 66T492 78L347 354L304 305V56Q304 43 309 38T328 32H390V0H62V32Z" />
<glyph unicode="L" glyph-name="L" horiz-adv-x="670" d="M62 32H132Q145 32 150 38T156 59V656Q156 670 151 675T132 680H62V712H398V680H328Q315 680 310 675T304 656V59Q304 45 309 39T328 32H429Q483 32 521 88T579 206Q586 229 594 263T604 308H636L628 0H62V32Z" />
<glyph unicode="M" glyph-name="M" horiz-adv-x="890" d="M199 537H192V122Q192 77 222 55T296 32V0H48V32Q91 32 121 54T152 122V656Q152 670 147 675T128 680H48V712H287L470 220L604 712H858V680H788Q775 680 770 675T764 656V56Q764 43 769 38T788 32H858V0H522V32H592Q606
32 611 37T616 56V625L442 -12H403L199 537Z" />
<glyph unicode="N" glyph-name="N" horiz-adv-x="764" d="M218 517H214V136Q214 90 249 61T340 32V0H48V32Q103 32 138 61T174 136V563Q174 574 172 579T163 594L123 654Q113 669 101 674T66 680H48V712H270L590 255V576Q590 622 555 651T464 680V712H756V680Q701
680 666 651T630 576V-18H592L218 517Z" />
<glyph unicode="O" glyph-name="O" horiz-adv-x="712" d="M289 -18T221 35T111 174T70 356Q70 451 111 537T220 677T366 730Q443 730 511 677T621 538T662 356Q662 261 621 175T512 35T366 -18Q289 -18 221 35ZM427 14T459 58T492 206V506Q492 609 460 653T366
698Q305 698 273 654T240 506V206Q240 103 272 59T366 14Q427 14 459 58Z" />
<glyph unicode="P" glyph-name="P" horiz-adv-x="702" d="M62 32H132Q146 32 151 37T156 56V656Q156 670 151 675T132 680H62V712H418Q488 712 542 689T627 623T658 526Q658 471 628 428T543 361T418 336H304V56Q304 43 309 38T328 32H416V0H62V32ZM403 368Q455
368 476 410T498 526Q498 599 477 639T403 680H328Q315 680 310 675T304 656V368H403Z" />
<glyph unicode="Q" glyph-name="Q" horiz-adv-x="712" d="M503 -238T476 -223T432 -178T415 -110Q415 -48 419 -11Q395 -18 367 -18Q288 -18 220 35T111 175T70 356Q70 451 111 537T220 677T366 730Q443 730 511 677T621 538T662 356Q662 284 638 215T570 92T471
9Q475 -48 495 -79T555 -110Q595 -110 614 -77T634 8Q634 29 631 56H661Q666 24 666 -21Q666 -62 662 -97T642 -164Q626 -198 597 -218T532 -238Q503 -238 476 -223ZM277 56Q274 68 274 80Q274 114 297 140T362 166Q404 166 431 139T464 71H467Q492 121 492 206V506Q492
609 460 653T366 698Q305 698 273 654T240 506V206Q240 102 275 55L277 56ZM394 14T421 25Q421 75 408 104T351 133Q330 133 316 115T302 75Q302 30 332 18Q340 14 366 14Q394 14 421 25Z" />
<glyph unicode="R" glyph-name="R" horiz-adv-x="730" d="M531 -24T494 14T456 126V250Q456 298 433 331T360 364H304V56Q304 43 309 38T328 32H416V0H62V32H132Q146 32 151 37T156 56V656Q156 670 151 675T132 680H62V712H386Q494 712 560 665T626 536Q626 467
576 427T442 377V370Q520 356 562 315T604 185V74Q604 32 632 32Q658 32 670 75T682 180H714Q714 83 688 30T595 -24Q531 -24 494 14ZM371 396Q424 396 445 435T466 544Q466 612 445 646T371 680H328Q315 680 310 675T304 656V396H371Z" />
<glyph unicode="S" glyph-name="S" horiz-adv-x="620" d="M303 -18T268 -6T210 26Q187 43 177 49T158 56Q137 56 132 22L127 -10H96L90 306H122Q136 230 169 163T250 55T353 14Q432 14 461 49T490 128Q490 154 472 174T418 218L204 356Q157 386 125 431T92 538Q92
635 148 682T288 730Q359 730 430 680Q453 662 466 662Q484 662 488 685L494 712H526L536 452H504Q485 521 451 577T373 665T280 698Q227 698 202 677T176 614Q176 557 265 499L480 360Q521 333 545 286T570 188Q570 136 545 89T470 12T347 -18Q303 -18 268 -6Z"
/>
<glyph unicode="T" glyph-name="T" horiz-adv-x="716" d="M190 32H270Q284 32 289 37T294 56V646Q294 662 284 671T257 680Q210 680 171 629T113 508Q102 471 98 446T92 414H60L68 712H668L676 414H644Q643 420 639 445T623 508Q604 577 565 628T479 680Q462 680
452 671T442 646V56Q442 43 447 38T466 32H546V0H190V32Z" />
<glyph unicode="U" glyph-name="U" horiz-adv-x="794" d="M329 -18T270 17T184 110T156 237V656Q156 670 151 675T132 680H68V712H392V680H328Q315 680 310 675T304 656V198Q304 106 339 64T447 22Q496 22 535 46T596 110T618 198V590Q618 635 588 657T514 680V712H762V680Q719
680 689 658T658 590V208Q658 145 630 94T547 12T419 -18Q329 -18 270 17Z" />
<glyph unicode="V" glyph-name="V" horiz-adv-x="772" d="M158 622Q147 655 130 667T79 680H46V712H393V680H343Q329 680 319 673T309 655Q309 644 313 633L461 212L576 569Q586 599 586 620Q586 642 572 661T530 680H480V712H750V680H719Q652 680 623 589L426
-18H384L158 622Z" />
<glyph unicode="W" glyph-name="W" horiz-adv-x="1076" d="M158 615Q147 648 126 664T63 680H44V712H369V680H340Q326 680 318 670T309 645Q309 633 314 620L440 235L534 555L512 622Q501 655 484 667T433 680H416V712H744V680H695Q681 680 672 671T663 651Q663
641 666 629L793 239L884 568Q886 575 888 592T891 622Q891 644 879 662T838 680H788V712H1058V680H1027Q960 680 931 589L762 -18H720L556 488L408 -18H366L158 615Z" />
<glyph unicode="X" glyph-name="X" horiz-adv-x="750" d="M52 32H83Q116 32 140 50T186 99L333 322L167 628Q153 653 132 666T77 680H62V712H376V680H355Q346 680 338 673T330 652Q330 640 338 624L426 462L504 581Q520 605 520 636Q520 653 509 666T476 680H446V712H700V680H670Q640
680 620 669T582 631L446 425L629 85Q644 58 665 45T710 32H730V0H398V32H431Q446 32 454 41T462 68Q462 83 450 104L353 284L257 139Q232 101 232 76Q232 58 241 45T268 32H312V0H52V32Z" />
<glyph unicode="Y" glyph-name="Y" horiz-adv-x="736" d="M222 32H286Q300 32 305 37T310 56V269L140 636Q128 661 115 670T81 680H46V712H360V680H332Q318 680 311 670T304 648Q304 632 310 620L442 333L534 562Q548 594 548 619Q548 643 535 661T494 680H466V712H714V680H684Q650
680 628 659T593 607L458 278V56Q458 43 463 38T482 32H546V0H222V32Z" />
<glyph unicode="Z" glyph-name="Z" horiz-adv-x="652" d="M68 32L420 680H294Q256 680 212 641T143 542Q132 515 126 488T120 456H88L100 712H588V678L237 32H374Q426 32 469 73T536 162Q554 197 564 236T574 282H606L590 0H68V32Z" />
<glyph unicode="[" glyph-name="bracketleft" horiz-adv-x="380" d="M80 712H310V684H216Q192 684 192 660V-128Q192 -152 216 -152H310V-180H80V712Z" />
<glyph unicode="\" glyph-name="backslash" horiz-adv-x="450" d="M332 -198L50 730H118L400 -198H332Z" />
<glyph unicode="]" glyph-name="bracketright" horiz-adv-x="380" d="M70 -152H164Q188 -152 188 -128V660Q188 684 164 684H70V712H300V-180H70V-152Z" />
<glyph unicode="^" glyph-name="asciicircum" horiz-adv-x="580" d="M54 372L280 730H300L526 372H448L290 622L132 372H54Z" />
<glyph unicode="_" glyph-name="underscore" horiz-adv-x="520" d="M0 -168V-104H520V-168H0Z" />
<glyph unicode="`" glyph-name="grave" horiz-adv-x="380" d="M128 624Q100 645 100 672Q100 690 112 701T142 712Q156 712 168 705T191 680L280 542L260 524L128 624Z" />
<glyph unicode="a" glyph-name="a" horiz-adv-x="508" d="M123 -12T85 15T46 106Q46 171 93 208T214 271L288 297V365Q288 416 267 439T213 462Q185 462 165 450T144 415Q144 409 147 401T160 386Q175 377 181 367T188 341Q188 317 171 304T132 290Q106 290 88
307T69 358Q69 396 92 425T151 470T224 486Q296 486 350 448T404 325V72Q404 36 424 36Q442 36 451 66T460 135H488Q488 62 466 28Q455 10 435 -1T389 -12Q348 -12 327 0T292 42H290Q250 -12 178 -12Q123 -12 85 15ZM266 28T288 72V270L232 250Q199 238 184 205T168
115Q168 66 186 47T227 28Q266 28 288 72Z" />
<glyph unicode="b" glyph-name="b" horiz-adv-x="528" d="M264 -12T240 6T196 53Q184 72 176 79T157 86Q140 86 128 58L100 0H84V672Q84 681 81 684T68 688H12V712H200V417L206 415Q222 448 247 467T304 486Q356 486 396 451T458 358T480 237Q480 174 457 117T393
24T300 -12Q264 -12 240 6ZM352 20T352 237Q352 454 286 454Q268 454 248 430T214 356T200 234Q200 175 212 126T243 49T286 20Q352 20 352 237Z" />
<glyph unicode="c" glyph-name="c" horiz-adv-x="468" d="M199 -12T151 21T75 112T48 237Q48 305 74 362T149 452T259 486Q307 486 339 466T388 415T404 351Q404 315 382 289T329 262Q306 262 291 275T276 312Q276 339 308 365Q332 385 332 406Q332 427 317 444T267
462Q220 462 198 403T176 237Q176 184 178 155T187 99Q196 62 221 40T281 18Q330 18 360 61T396 162H422Q416 93 377 41T261 -12Q199 -12 151 21Z" />
<glyph unicode="d" glyph-name="d" horiz-adv-x="538" d="M176 -12T135 23T71 116T48 237Q48 301 70 358T132 450T224 486Q256 486 281 467T322 415L328 417V672Q328 681 325 684T312 688H256V712H444V40Q444 31 447 28T460 24H516V0H328V58H322Q309 30 285 9T228
-12Q176 -12 135 23ZM265 20T284 48T316 126T328 234Q328 306 314 356T280 430T242 454Q176 454 176 237Q176 20 242 20Q265 20 284 48Z" />
<glyph unicode="e" glyph-name="e" horiz-adv-x="472" d="M199 -12T151 21T75 112T48 237Q48 307 75 364T148 453T250 486Q311 486 355 443T413 328Q420 296 420 228H176Q176 180 178 153T187 99Q196 62 221 40T281 18Q330 18 360 61T396 162H422Q416 93 377 41T261
-12Q199 -12 151 21ZM304 256Q304 361 291 411T240 462Q203 462 190 412T176 256H304Z" />
<glyph unicode="f" glyph-name="f" horiz-adv-x="350" d="M30 24H86Q95 24 98 27T102 40V446H30V474H102V522Q102 585 129 630T199 697T285 720Q340 720 373 687T406 603Q406 573 385 551T332 529Q309 529 291 544T273 584Q273 613 301 638Q318 653 318 670Q318
684 307 690T281 696Q256 696 237 666T218 564V474H290V446H218V40Q218 31 221 28T234 24H290V0H30V24Z" />
<glyph unicode="g" glyph-name="g" horiz-adv-x="554" d="M171 -238T107 -205T42 -114Q42 -81 67 -54T136 -16V-13Q106 -11 82 12T58 69Q58 164 170 186V190Q131 207 102 242T72 330Q72 375 97 411T164 466T254 486Q336 486 393 434H396Q427 486 470 486Q502 486
522 467T542 420Q542 390 526 368T486 346Q470 346 458 355T446 381Q446 397 462 417Q468 423 473 431T478 445Q478 461 457 461Q430 461 406 419Q438 384 438 322Q438 286 415 252T350 195T252 173Q191 173 154 163T117 120Q117 85 166 85H324Q395 85 442 51T489
-51Q489 -101 462 -143T384 -212T264 -238Q171 -238 107 -205ZM288 198T302 229T316 330Q316 399 302 430T256 462Q223 462 209 431T194 330Q194 261 208 230T256 198Q288 198 302 229ZM318 -206T370 -178T422 -98Q422 -60 380 -44T273 -27Q196 -27 137 -45T78
-115Q78 -159 129 -182T249 -206Q318 -206 370 -178Z" />
<glyph unicode="h" glyph-name="h" horiz-adv-x="560" d="M26 24H82Q91 24 94 27T98 40V672Q98 681 95 684T82 688H26V712H214V385L219 384Q239 431 270 458T343 486Q368 486 386 481T420 464Q445 446 459 414T474 348V40Q474 31 477 28T490 24H528V0H310V24H342Q351
24 354 27T358 40V377Q358 454 312 454Q291 454 268 426T230 352T214 254V40Q214 31 217 28T230 24H262V0H26V24Z" />
<glyph unicode="i" glyph-name="i" horiz-adv-x="296" d="M117 576T96 597T74 650Q74 682 95 703T148 724Q180 724 201 703T222 650Q222 619 201 598T148 576Q117 576 96 597ZM40 24H78Q87 24 90 27T94 40V434Q94 443 91 446T78 450H40V474H210V40Q210 31 213
28T226 24H264V0H40V24Z" />
<glyph unicode="j" glyph-name="j" horiz-adv-x="320" d="M147 576T126 597T104 650Q104 682 125 703T178 724Q210 724 231 703T252 650Q252 619 231 598T178 576Q147 576 126 597ZM21 -238T-15 -207T-52 -126Q-52 -92 -30 -70T22 -47Q45 -47 63 -61T81 -100Q81
-131 53 -156Q36 -171 36 -188Q36 -202 47 -208T73 -214Q96 -214 108 -186T120 -82V434Q120 443 117 446T104 450H48V474H236V-40Q236 -104 214 -148T156 -215T77 -238Q21 -238 -15 -207Z" />
<glyph unicode="k" glyph-name="k" horiz-adv-x="560" d="M26 24H82Q91 24 94 27T98 40V672Q98 681 95 684T82 688H26V712H214V213L344 376Q364 401 364 421Q364 434 356 441T336 449H306V474H497V449H474Q450 449 431 434T385 384L326 310L482 57Q492 40 500
32T519 24H540V0H309V24H327Q336 24 344 29T352 46Q352 70 338 92L257 224L214 171V40Q214 31 218 28T232 24H268V0H26V24Z" />
<glyph unicode="l" glyph-name="l" horiz-adv-x="308" d="M26 24H82Q91 24 94 27T98 40V672Q98 681 95 684T82 688H26V712H214V40Q214 31 217 28T230 24H286V0H26V24Z" />
<glyph unicode="m" glyph-name="m" horiz-adv-x="800" d="M40 24H78Q87 24 90 27T94 40V434Q94 443 91 446T78 450H40V474H210V375L215 374Q260 486 340 486Q402 486 426 455T460 376H465Q483 427 514 456T583 486Q608 486 626 481T660 464Q685 446 699 414T714
348V40Q714 31 717 28T730 24H768V0H550V24H582Q591 24 594 27T598 40V377Q598 454 552 454Q531 454 510 427T476 353T462 254V40Q462 31 465 28T478 24H510V0H298V24H330Q339 24 342 27T346 40V395Q346 425 339 439T308 454Q287 454 264 426T226 352T210 254V40Q210
31 213 28T226 24H258V0H40V24Z" />
<glyph unicode="n" glyph-name="n" horiz-adv-x="556" d="M40 24H78Q87 24 90 27T94 40V434Q94 443 91 446T78 450H40V474H210V385L215 384Q235 431 266 458T339 486Q364 486 382 481T416 464Q441 446 455 414T470 348V40Q470 31 473 28T486 24H524V0H306V24H338Q347
24 350 27T354 40V377Q354 454 308 454Q287 454 264 426T226 352T210 254V40Q210 31 213 28T226 24H258V0H40V24Z" />
<glyph unicode="o" glyph-name="o" horiz-adv-x="504" d="M198 -12T151 20T76 110T48 237Q48 307 76 364T151 453T252 486Q306 486 353 454T428 364T456 237Q456 167 428 110T353 21T252 -12Q198 -12 151 20ZM295 12T311 65T328 237Q328 356 312 409T252 462Q209
462 193 409T176 237Q176 118 192 65T252 12Q295 12 311 65Z" />
<glyph unicode="p" glyph-name="p" horiz-adv-x="544" d="M28 -204H84Q93 -204 96 -201T100 -188V434Q100 443 97 446T84 450H28V474H216V416H222Q235 444 259 465T316 486Q368 486 409 451T473 358T496 237Q496 173 474 116T412 24T320 -12Q288 -12 263 7T222
59L216 57V-188Q216 -197 219 -200T232 -204H288V-228H28V-204ZM368 20T368 237Q368 454 302 454Q279 454 260 426T228 348T216 240Q216 168 230 118T264 44T302 20Q368 20 368 237Z" />
<glyph unicode="q" glyph-name="q" horiz-adv-x="524" d="M256 -204H312Q321 -204 324 -201T328 -188V57L322 59Q306 26 281 7T224 -12Q172 -12 132 23T70 116T48 237Q48 300 71 357T135 450T228 486Q264 486 288 468T332 421Q344 402 352 395T371 388Q388 388
400 416L428 474H444V-188Q444 -197 447 -200T460 -204H498V-228H256V-204ZM260 20T280 44T314 118T328 240Q328 299 316 348T285 425T242 454Q176 454 176 237Q176 20 242 20Q260 20 280 44Z" />
<glyph unicode="r" glyph-name="r" horiz-adv-x="434" d="M40 24H78Q87 24 90 27T94 40V434Q94 443 91 446T78 450H40V474H210V375L215 374Q231 420 260 453T326 486Q362 486 385 460T408 394Q408 357 387 331T335 304Q308 304 289 320T270 361Q270 385 294 413Q308
429 308 436Q308 446 297 446Q277 446 257 417T223 341T210 241V40Q210 31 213 28T226 24H258V0H40V24Z" />
<glyph unicode="s" glyph-name="s" horiz-adv-x="430" d="M58 186H80L125 107Q179 12 261 12Q298 12 316 30T334 72Q334 92 324 106T288 136T209 178Q145 209 102 248T58 350Q58 412 97 449T192 486Q239 486 292 452Q311 440 322 440Q334 440 338 456L344 476H362V316H340L321
354Q294 408 259 435T188 462Q161 462 144 449T126 407Q126 348 232 298Q297 267 331 243T382 191T398 122Q398 60 359 24T260 -12Q210 -12 156 20Q132 36 120 36Q107 36 97 29T83 9L76 -12H58V186Z" />
<glyph unicode="t" glyph-name="t" horiz-adv-x="364" d="M149 -12T115 20T80 112V446H20V474Q79 482 113 523T148 630V666H196V474H298V446H196V105Q196 72 205 52T242 32Q284 32 298 89T312 218H340Q340 161 333 113T309 39Q277 -12 212 -12Q149 -12 115 20Z" />
<glyph unicode="u" glyph-name="u" horiz-adv-x="550" d="M194 -12T176 -7T142 10Q117 28 103 60T88 126V434Q88 443 85 446T72 450H24V474H204V97Q204 20 250 20Q271 20 294 48T332 122T348 220V434Q348 443 345 446T332 450H284V474H464V40Q464 31 467 28T480
24H518V0H348V89L343 90Q323 43 292 16T219 -12Q194 -12 176 -7Z" />
<glyph unicode="v" glyph-name="v" horiz-adv-x="530" d="M99 392Q88 424 75 437T35 450H18V474H263V450H234Q225 450 218 443T210 424Q210 414 216 396L305 149L384 368Q391 390 391 412Q391 426 381 438T356 450H330V474H500V450H478Q444 450 422 388L278 -12H246L99
392Z" />
<glyph unicode="w" glyph-name="w" horiz-adv-x="776" d="M100 392Q89 423 75 436T35 450H18V474H249V450H230Q221 450 216 443T210 424Q210 414 216 396L306 145L379 349L364 392Q353 423 341 436T307 450H294V474H527V450H498Q489 450 482 443T474 424Q474 414
480 396L560 158L636 369Q643 391 643 414Q643 428 633 439T608 450H582V474H752V450H730Q696 450 674 388L530 -12H498L393 307L278 -12H246L100 392Z" />
<glyph unicode="x" glyph-name="x" horiz-adv-x="520" d="M24 24H62Q80 24 97 41T132 84L216 204L89 414Q79 432 70 441T46 450H24V474H253V450H239Q232 450 226 445T220 428Q220 416 228 404L287 306L348 395Q360 413 360 429Q360 439 352 444T333 450H293V474H470V450H443Q429
450 416 436T382 393L303 279L433 64Q443 47 455 36T484 24H500V0H273V24H288Q295 24 299 29T303 45Q303 59 293 75L232 177L178 99Q166 82 166 56Q166 42 173 33T191 24H228V0H24V24Z" />
<glyph unicode="y" glyph-name="y" horiz-adv-x="524" d="M110 -238T85 -213T60 -147Q60 -114 81 -89T134 -64Q158 -64 173 -78T189 -114Q189 -127 184 -138T170 -156Q156 -168 156 -182Q156 -191 161 -198T179 -206Q196 -206 207 -185T229 -132L262 -22L89 392Q75
425 64 437T27 450H12V474H257V450H228Q219 450 212 443T204 424Q204 413 211 396L314 149L379 368Q386 396 386 412Q386 427 378 438T355 450H329V474H494V450H472Q454 450 438 435T412 388L260 -117Q225 -238 151 -238Q110 -238 85 -213Z" />
<glyph unicode="z" glyph-name="z" horiz-adv-x="460" d="M32 26L282 450H214Q154 450 120 398Q102 370 93 338T84 298H60L66 474H414V454L160 24H246Q282 24 315 51T366 116Q379 142 383 170T388 208H412L406 0H32V26Z" />
<glyph unicode="{" glyph-name="braceleft" horiz-adv-x="420" d="M249 -179T195 -141T140 -30V172Q140 222 116 237T42 253V279Q92 279 116 294T140 360V562Q140 635 194 673T346 730L354 702Q298 691 275 671T252 604V410Q252 345 221 312T137 267V265Q189 253
220 220T252 122V-72Q252 -119 275 -139T354 -170L346 -198Q249 -179 195 -141Z" />
<glyph unicode="|" glyph-name="bar" horiz-adv-x="284" d="M108 -198V730H176V-198H108Z" />
<glyph unicode="}" glyph-name="braceright" horiz-adv-x="420" d="M66 -170Q122 -159 145 -139T168 -72V122Q168 187 199 220T283 265V267Q231 279 200 312T168 410V604Q168 651 145 671T66 702L74 730Q171 711 225 673T280 562V360Q280 310 304 295T378 279V253Q328
253 304 238T280 172V-30Q280 -103 226 -141T74 -198L66 -170Z" />
<glyph unicode="~" glyph-name="asciitilde" horiz-adv-x="660" d="M81 173T65 196T48 249Q48 294 79 328T164 362Q206 362 253 346T370 299Q429 272 469 258T538 244Q554 244 566 255T578 286Q578 307 567 321T536 346L550 367Q581 353 597 330T614 277Q614 232
583 198T498 164Q456 164 409 180T292 227Q233 254 193 268T124 282Q108 282 96 271T84 240Q84 219 95 205T126 180L112 159Q81 173 65 196Z" />
<glyph unicode="&#xa0;" glyph-name="uni00A0" horiz-adv-x="280" />
<glyph unicode="&#xa1;" glyph-name="exclamdown" horiz-adv-x="280" d="M106 348T84 370T62 426Q62 460 84 482T140 504Q174 504 196 482T218 426Q218 392 196 370T140 348Q106 348 84 370ZM104 -238T81 -212T58 -140Q58 -107 65 -71T85 15Q107 100 112 142L128
287H152L168 142Q171 108 195 15Q208 -34 215 -70T222 -140Q222 -186 199 -212T140 -238Q104 -238 81 -212Z" />
<glyph unicode="&#xa2;" glyph-name="cent" horiz-adv-x="580" d="M294 -11Q237 -5 194 29T126 118T102 237Q102 302 126 356T194 445T294 485V594H334V485Q394 479 426 439T458 351Q458 324 442 302T398 280Q376 280 363 293T350 329Q350 349 373 375Q390 394
390 406Q390 424 376 441T334 461V18Q384 18 414 61T450 162H476Q470 98 436 47T334 -11V-120H294V-11ZM294 456Q230 424 230 237Q230 184 232 155T241 99Q253 48 294 28V456Z" />
<glyph unicode="&#xa3;" glyph-name="sterling" horiz-adv-x="720" d="M385 -18T293 42Q229 -12 162 -12Q120 -12 92 6T64 65Q64 89 78 108T113 139T156 150Q188 150 217 142T290 117Q296 140 296 165Q296 224 271 299Q256 340 248 380Q226 382 215 382Q189 382
175 377T139 360L123 390Q138 403 156 410T205 418Q217 418 241 416Q236 451 236 484Q236 560 269 615T359 699T482 728Q535 728 574 707T634 654T654 589Q654 556 631 530T577 504Q555 504 536 519T517 557Q517 577 525 588T548 612Q560 623 564 632T568 653Q568
670 546 686T482 702Q431 702 408 654T384 536Q384 487 394 389Q426 384 449 384Q475 384 490 389T525 406L541 376Q513 348 459 348Q431 348 398 353Q402 305 402 274Q402 230 387 185T344 100Q383 89 417 85T492 80Q540 80 582 108T651 181L676 170Q647 96 589
39T445 -18Q385 -18 293 42ZM189 12T215 25T262 63Q227 86 201 98T150 110Q124 110 108 96T92 59Q92 34 113 23T162 12Q189 12 215 25Z" />
<glyph unicode="&#xa4;" glyph-name="currency" horiz-adv-x="580" d="M38 133L106 201Q58 263 58 342Q58 421 106 485L38 553L80 595L148 527Q178 550 214 563T290 576Q329 576 365 563T432 527L500 595L542 553L474 485Q522 421 522 342Q522 263 474 201L542
133L500 91L432 159Q370 110 290 110Q210 110 148 159L80 91L38 133ZM365 174T411 220T458 342Q458 417 412 464T290 512Q215 512 169 465T122 342Q122 267 168 221T290 174Q365 174 411 220Z" />
<glyph unicode="&#xa5;" glyph-name="yen" horiz-adv-x="580" d="M116 32H188Q212 32 212 56V228H72V260H212V326H72V358H203L80 641Q71 660 61 670T36 680H18V712H282V680H258Q249 680 244 673T239 656Q239 646 246 632L346 402L430 582Q435 592 438 608T442
638Q442 651 434 665T410 680H385V712H562V680H546Q525 680 509 659T477 605L360 358H500V326H360V260H500V228H360V56Q360 32 384 32H456V0H116V32Z" />
<glyph unicode="&#xa6;" glyph-name="brokenbar" horiz-adv-x="284" d="M108 370V730H176V370H108ZM108 -168V192H176V-168H108Z" />
<glyph unicode="&#xa7;" glyph-name="section" horiz-adv-x="640" d="M209 -198T170 -179T112 -128T92 -64Q92 -21 117 5T180 32Q208 32 225 16T243 -26Q243 -47 234 -60T206 -83Q192 -91 182 -102T172 -124Q172 -146 202 -158T265 -170Q314 -170 348 -141T382
-60Q382 -18 364 7T307 50L156 121Q104 145 77 182T50 274Q50 319 72 357T127 419Q92 468 92 543Q92 595 118 636T190 701T291 724Q345 724 384 705T442 654T462 590Q462 547 437 521T374 494Q346 494 329 510T311 552Q311 573 320 586T348 609Q362 617 372 628T382
650Q382 672 352 684T289 696Q240 696 206 667T172 586Q172 544 190 519T247 476L398 405Q450 381 477 344T504 252Q504 207 482 169T427 107Q462 58 462 -17Q462 -69 436 -110T364 -175T263 -198Q209 -198 170 -179ZM433 139T440 154T448 189Q448 212 439 229T412
256L212 352Q169 373 141 402Q121 387 114 372T106 337Q106 314 115 297T142 270L342 174Q385 153 413 124Q433 139 440 154Z" />
<glyph unicode="&#xa8;" glyph-name="dieresis" horiz-adv-x="512" d="M135 558T118 575T100 618Q100 643 117 660T160 678Q185 678 202 661T220 618Q220 593 203 576T160 558Q135 558 118 575ZM327 558T310 575T292 618Q292 643 309 660T352 678Q377 678 394
661T412 618Q412 593 395 576T352 558Q327 558 310 575Z" />
<glyph unicode="&#xa9;" glyph-name="copyright" horiz-adv-x="820" d="M309 -18T226 32T96 168T48 356Q48 458 95 543T226 679T410 730Q511 730 594 680T724 544T772 356Q772 254 725 169T594 33T410 -18Q309 -18 226 32ZM500 18T574 64T690 187T732 356Q732
447 690 524T574 648T410 694Q320 694 246 648T130 525T88 356Q88 265 130 188T246 64T410 18Q500 18 574 64ZM350 110T307 144T242 233T220 351Q220 417 242 472T305 561T401 594Q448 594 489 564Q507 552 513 552Q523 552 528 565L537 588H562V390H538Q524 472
492 519T415 566Q387 566 368 538T348 447V256Q348 194 370 166T422 138Q492 138 526 205Q542 237 550 300H576Q573 238 549 192Q529 153 494 132T411 110Q350 110 307 144Z" />
<glyph unicode="&#xaa;" glyph-name="ordfeminine" horiz-adv-x="380" d="M95 410T70 427T44 483Q44 524 75 545T159 585L198 599V639Q198 694 156 694Q139 694 127 687T114 667Q114 656 125 650Q135 644 139 639T143 624Q143 609 131 602T104 594Q87 594 74 604T60
635Q60 670 92 691T163 712Q212 712 247 691T282 625V467Q282 446 295 446Q305 446 310 463T316 504H336Q336 457 321 435Q314 424 300 417T268 410Q241 410 226 419T201 447H200Q190 431 172 421T130 410Q95 410 70 427ZM184 440T198 463V581L170 571Q132 557
132 490Q132 462 141 451T162 440Q184 440 198 463ZM52 354V386H328V354H52Z" />
<glyph unicode="&#xab;" glyph-name="guillemotleft" horiz-adv-x="480" d="M108 103T108 237Q108 371 232 446L248 430Q225 405 215 383T200 328T196 237Q196 178 200 146T214 92T248 44L232 28Q108 103 108 237ZM327 73T296 124T265 237Q265 298 290 342T360
428L376 412Q351 378 344 339T337 237Q337 175 344 136T376 62L360 46Q327 73 296 124Z" />
<glyph unicode="&#xac;" glyph-name="logicalnot" horiz-adv-x="580" d="M472 137V345H40V409H540V137H472Z" />
<glyph unicode="&#xad;" glyph-name="uni00AD" horiz-adv-x="370" d="M56 208V310H314V208H56Z" />
<glyph unicode="&#xae;" glyph-name="registered" horiz-adv-x="820" d="M309 -18T226 32T96 168T48 356Q48 458 95 543T226 679T410 730Q511 730 594 680T724 544T772 356Q772 254 725 169T594 33T410 -18Q309 -18 226 32ZM500 18T574 64T690 187T732 356Q732
447 690 524T574 648T410 694Q320 694 246 648T130 525T88 356Q88 265 130 188T246 64T410 18Q500 18 574 64ZM517 112T491 136T464 208V287Q464 318 450 339T407 360H374V172Q374 154 392 154H440V130H204V154H244Q262 154 262 172V544Q262 562 244 562H204V586H428Q502
586 547 556T592 473Q592 429 555 403T456 370V365Q514 356 545 330T576 249V180Q576 166 580 160T592 154Q608 154 615 181T622 246H646Q646 182 628 147T562 112Q517 112 491 136ZM414 385Q446 385 459 409T472 477Q472 520 460 541T414 562H392Q374 562 374
544V385H414Z" />
<glyph unicode="&#xaf;" glyph-name="overscore" horiz-adv-x="460" d="M100 584V648H360V584H100Z" />
<glyph unicode="&#xb0;" glyph-name="degree" horiz-adv-x="580" d="M247 408T210 429T152 488T130 568Q130 611 151 648T210 706T290 728Q333 728 370 707T428 648T450 568Q450 525 429 488T370 430T290 408Q247 408 210 429ZM335 464T364 493T394 568Q394 613
365 642T290 672Q245 672 216 643T186 568Q186 523 215 494T290 464Q335 464 364 493Z" />
<glyph unicode="&#xb1;" glyph-name="plusminus" horiz-adv-x="940" d="M436 64V344H48V408H436V688H504V408H892V344H504V64H436ZM48 -64V0H884V-64H48Z" />
<glyph unicode="&#xb2;" glyph-name="uni00B2" horiz-adv-x="388" d="M189 274T145 320Q133 333 125 338T104 344Q95 344 89 338T82 323V286H54V314Q54 351 69 387T136 470Q185 514 209 546T234 619Q234 652 220 674T173 697Q150 697 135 683T120 650Q120 627
137 616Q151 606 157 598T164 576Q164 561 151 551T119 541Q90 541 69 559T48 609Q48 640 67 666T119 708T192 724Q266 724 304 696T342 620Q342 544 179 466Q153 454 126 429T92 374L96 372Q120 396 146 396Q167 396 202 391Q232 386 261 386Q285 386 300 397T316
423Q316 441 312 457H335Q339 433 339 407Q339 355 313 315T231 274Q189 274 145 320Z" />
<glyph unicode="&#xb3;" glyph-name="uni00B3" horiz-adv-x="388" d="M114 274T75 299T36 368Q36 393 55 411T103 430Q127 430 141 419T155 391Q155 363 124 351Q117 348 112 343T106 332Q106 316 123 307T170 298Q205 298 222 323T240 401Q240 449 221 472T174
495H107V523H172Q203 523 217 543T232 608Q232 661 218 680T175 700Q150 700 132 688T114 655Q114 648 120 642T134 631Q157 618 157 596Q157 582 145 572T112 561Q87 561 69 579T50 623Q50 668 89 696T184 724Q253 724 296 695T340 616Q340 573 306 548T222 514V507Q274
503 315 473T356 398Q356 338 306 306T173 274Q114 274 75 299Z" />
<glyph unicode="&#xb4;" glyph-name="acute" horiz-adv-x="380" d="M100 542L189 680Q200 698 212 705T238 712Q256 712 268 701T280 672Q280 645 252 624L120 524L100 542Z" />
<glyph unicode="&#xb5;" glyph-name="uni00B5" horiz-adv-x="606" d="M111 -282T93 -253T74 -185Q74 -108 94 -21Q105 33 109 92Q90 146 75 216T60 354Q60 405 81 444T135 484Q166 484 181 454T196 389Q196 364 190 326T174 259Q149 179 138 107Q159 49 239 49Q272
49 299 69T342 116T358 158Q326 251 326 362Q326 407 342 445T390 484Q422 484 442 447T462 355Q462 302 448 234T410 115Q434 91 460 91Q497 91 518 116T554 192L572 188Q572 107 553 46T485 -15Q450 -15 430 8T392 72L387 71Q370 40 337 15T265 -10Q192 -10 134
53L131 52Q128 31 128 16Q128 -13 137 -39T166 -100Q186 -139 196 -164T207 -211Q207 -239 191 -260T146 -282Q111 -282 93 -253Z" />
<glyph unicode="&#xb6;" glyph-name="paragraph" horiz-adv-x="600" d="M258 321Q201 321 155 344T83 411T56 510Q56 567 82 613T155 685T258 712H544V678H474V-156H406V678H326V-156H258V321Z" />
<glyph unicode="&#xb7;" glyph-name="middot" horiz-adv-x="280" d="M106 252T84 274T62 330Q62 364 84 386T140 408Q174 408 196 386T218 330Q218 296 196 274T140 252Q106 252 84 274Z" />
<glyph unicode="&#xb8;" glyph-name="cedilla" horiz-adv-x="404" d="M160 -208T130 -191T100 -143Q100 -128 107 -120T129 -111Q144 -111 150 -120T160 -148Q168 -186 209 -186Q231 -186 243 -173T256 -140Q256 -121 244 -110T208 -98H161L177 0H202L195 -42H220Q256
-42 280 -63T304 -117Q304 -155 278 -181T195 -208Q160 -208 130 -191Z" />
<glyph unicode="&#xb9;" glyph-name="uni00B9" horiz-adv-x="388" d="M88 310H132Q141 310 144 313T148 326V636H88V664H115Q143 664 167 676T201 712H256V326Q256 317 259 314T272 310H316V286H88V310Z" />
<glyph unicode="&#xba;" glyph-name="ordmasculine" horiz-adv-x="380" d="M153 410T122 430T74 485T56 561Q56 602 73 636T122 691T190 712Q227 712 258 692T306 637T324 561Q324 520 307 486T258 431T190 410Q153 410 122 430ZM215 428T223 461T232 561Q232
628 224 661T190 694Q164 694 156 662T148 561Q148 493 156 461T190 428Q215 428 223 461ZM56 354V386H324V354H56Z" />
<glyph unicode="&#xbb;" glyph-name="guillemotright" horiz-adv-x="480" d="M232 44Q255 69 265 91T280 146T284 237Q284 296 280 328T266 382T232 430L248 446Q372 371 372 237Q372 103 248 28L232 44ZM104 62Q129 96 136 135T143 237Q143 299 136 338T104 412L120
428Q165 386 190 342T215 237Q215 176 184 125T120 46L104 62Z" />
<glyph unicode="&#xbc;" glyph-name="onequarter" horiz-adv-x="860" d="M188 -18L622 730H672L238 -18H188ZM88 310H132Q141 310 144 313T148 326V636H88V664H115Q143 664 167 676T201 712H256V326Q256 317 259 314T272 310H316V286H88V310ZM570 24H634Q643 24
646 27T650 40V118H502V147L684 426H758V146H828V118H758V40Q758 31 761 28T774 24H818V0H570V24ZM540 146H650V314L540 146Z" />
<glyph unicode="&#xbd;" glyph-name="onehalf" horiz-adv-x="860" d="M188 -18L622 730H672L238 -18H188ZM88 310H132Q141 310 144 313T148 326V636H88V664H115Q143 664 167 676T201 712H256V326Q256 317 259 314T272 310H316V286H88V310ZM661 -12T617 34Q605
47 597 52T576 58Q567 58 561 52T554 37V0H526V28Q526 65 541 101T608 184Q657 228 681 260T706 333Q706 366 692 388T645 411Q622 411 607 397T592 364Q592 341 609 330Q623 320 629 312T636 290Q636 275 623 265T591 255Q562 255 541 273T520 323Q520 354 539
380T591 422T664 438Q738 438 776 410T814 334Q814 258 651 180Q625 168 598 143T564 88L568 86Q592 110 618 110Q639 110 674 105Q704 100 733 100Q757 100 772 111T788 137Q788 155 784 171H807Q811 147 811 121Q811 69 785 29T703 -12Q661 -12 617 34Z" />
<glyph unicode="&#xbe;" glyph-name="threequarters" horiz-adv-x="860" d="M188 -18L622 730H672L238 -18H188ZM114 274T75 299T36 368Q36 393 55 411T103 430Q127 430 141 419T155 391Q155 363 124 351Q117 348 112 343T106 332Q106 316 123 307T170 298Q205
298 222 323T240 401Q240 449 221 472T174 495H107V523H172Q203 523 217 543T232 608Q232 661 218 680T175 700Q150 700 132 688T114 655Q114 648 120 642T134 631Q157 618 157 596Q157 582 145 572T112 561Q87 561 69 579T50 623Q50 668 89 696T184 724Q253 724
296 695T340 616Q340 573 306 548T222 514V507Q274 503 315 473T356 398Q356 338 306 306T173 274Q114 274 75 299ZM570 24H634Q643 24 646 27T650 40V118H502V147L684 426H758V146H828V118H758V40Q758 31 761 28T774 24H818V0H570V24ZM540 146H650V314L540 146Z"
/>
<glyph unicode="&#xbf;" glyph-name="questiondown" horiz-adv-x="470" d="M182 350T160 372T138 428Q138 462 160 484T216 506Q250 506 272 484T294 428Q294 394 272 372T216 350Q182 350 160 372ZM188 -238T151 -219T93 -168T72 -94Q72 -47 106 1T195 100Q237
139 258 169T280 238Q280 263 262 275T219 288Q193 288 178 270T163 222Q163 210 168 196L144 186Q139 197 137 204T135 223Q135 265 159 291T219 318Q259 318 286 297T314 237Q314 202 301 169T262 97Q227 43 211 0T194 -107Q194 -146 213 -172T266 -198Q306 -198
332 -166T358 -90Q358 -53 350 -31T320 18L343 35Q368 4 380 -24T392 -92Q392 -130 374 -163T320 -217T235 -238Q188 -238 151 -219Z" />
<glyph unicode="&#xc0;" glyph-name="Agrave" horiz-adv-x="754" d="M275 860Q247 881 247 908Q247 926 259 937T289 948Q303 948 315 941T338 916L427 778L407 760L275 860ZM44 32H78Q108 32 131 55T166 113L377 730H419L633 83Q650 32 692 32H732V0H381V32H453Q465
32 472 41T480 64Q480 75 474 93L442 189H232L211 128Q200 100 200 77Q200 59 214 46T252 32H299V0H44V32ZM245 226H430L339 501L245 226Z" />
<glyph unicode="&#xc1;" glyph-name="Aacute" horiz-adv-x="754" d="M364 778L453 916Q464 934 476 941T502 948Q520 948 532 937T544 908Q544 881 516 860L384 760L364 778ZM44 32H78Q108 32 131 55T166 113L377 730H419L633 83Q650 32 692 32H732V0H381V32H453Q465
32 472 41T480 64Q480 75 474 93L442 189H232L211 128Q200 100 200 77Q200 59 214 46T252 32H299V0H44V32ZM245 226H430L339 501L245 226Z" />
<glyph unicode="&#xc2;" glyph-name="Acircumflex" horiz-adv-x="754" d="M228 786Q325 837 376 930H416Q465 836 564 786L552 762Q509 777 476 794T396 842Q349 812 316 795T240 762L228 786ZM44 32H78Q108 32 131 55T166 113L377 730H419L633 83Q650 32 692
32H732V0H381V32H453Q465 32 472 41T480 64Q480 75 474 93L442 189H232L211 128Q200 100 200 77Q200 59 214 46T252 32H299V0H44V32ZM245 226H430L339 501L245 226Z" />
<glyph unicode="&#xc3;" glyph-name="Atilde" horiz-adv-x="754" d="M248 825T259 850T290 891T336 908Q358 908 375 903T418 887Q453 872 482 872Q515 872 522 912H544Q544 887 533 862T502 821T456 804Q434 804 417 809T374 825Q339 840 310 840Q277 840 270
800H248Q248 825 259 850ZM44 32H78Q108 32 131 55T166 113L377 730H419L633 83Q650 32 692 32H732V0H381V32H453Q465 32 472 41T480 64Q480 75 474 93L442 189H232L211 128Q200 100 200 77Q200 59 214 46T252 32H299V0H44V32ZM245 226H430L339 501L245 226Z" />
<glyph unicode="&#xc4;" glyph-name="Adieresis" horiz-adv-x="754" d="M265 794T248 811T230 854Q230 879 247 896T290 914Q315 914 332 897T350 854Q350 829 333 812T290 794Q265 794 248 811ZM477 794T460 811T442 854Q442 879 459 896T502 914Q527 914 544
897T562 854Q562 829 545 812T502 794Q477 794 460 811ZM44 32H78Q108 32 131 55T166 113L377 730H419L633 83Q650 32 692 32H732V0H381V32H453Q465 32 472 41T480 64Q480 75 474 93L442 189H232L211 128Q200 100 200 77Q200 59 214 46T252 32H299V0H44V32ZM245
226H430L339 501L245 226Z" />
<glyph unicode="&#xc5;" glyph-name="Aring" horiz-adv-x="754" d="M347 754T316 781T285 850Q285 892 316 919T396 946Q445 946 476 919T507 850Q507 808 476 781T396 754Q347 754 316 781ZM425 798T444 812T463 850Q463 874 444 888T396 902Q367 902 348 888T329
850Q329 826 348 812T396 798Q425 798 444 812ZM44 32H78Q108 32 131 55T166 113L377 730H419L633 83Q650 32 692 32H732V0H381V32H453Q465 32 472 41T480 64Q480 75 474 93L442 189H232L211 128Q200 100 200 77Q200 59 214 46T252 32H299V0H44V32ZM245 226H430L339
501L245 226Z" />
<glyph unicode="&#xc6;" glyph-name="AE" horiz-adv-x="1004" d="M26 32H49Q85 32 118 57T171 120L412 591Q424 615 429 628T434 654Q434 665 427 672T405 680H376V712H944L950 480H918Q918 487 908 525T878 594Q855 634 825 657T758 680H648Q635 680 630 675T624
656V380H675Q702 380 725 402T761 456T775 518H807V205H775Q775 235 762 267T725 322T675 344H624V56Q624 43 629 38T648 32H757Q812 32 849 76T905 174Q913 197 919 231T926 276H958L952 0H381V32H451Q465 32 470 37T475 56V210H266L243 166Q232 146 223 121T214
83Q214 32 263 32H296V0H26V32ZM283 246H475V620L283 246Z" />
<glyph unicode="&#xc7;" glyph-name="Ccedilla" horiz-adv-x="660" d="M315 -238T280 -220T245 -170Q245 -153 253 -142T278 -131Q296 -131 303 -141T315 -168Q324 -214 369 -214Q397 -214 412 -200T427 -161Q427 -139 413 -125T369 -111H316L330 -17Q247 -8 188
46T100 182T70 356Q70 457 104 542T201 679T350 730Q387 730 418 718T485 681Q508 666 519 666Q527 666 532 670T541 685L559 722H592V415H560Q537 544 481 621T350 698Q303 698 272 652T240 506V206Q240 107 275 61T360 14Q479 14 537 123Q566 176 576 275H612Q609
231 599 187T571 109Q545 58 495 20T359 -18L355 -47H388Q427 -47 453 -72T479 -132Q479 -178 449 -208T353 -238Q315 -238 280 -220Z" />
<glyph unicode="&#xc8;" glyph-name="Egrave" horiz-adv-x="690" d="M252 860Q224 881 224 908Q224 926 236 937T266 948Q280 948 292 941T315 916L404 778L384 760L252 860ZM62 32H132Q146 32 151 37T156 56V656Q156 670 151 675T132 680H62V712H624L630 480H598Q598
487 588 525T558 594Q535 634 505 657T438 680H328Q315 680 310 675T304 656V380H355Q382 380 405 402T441 456T455 518H487V205H455Q455 235 442 267T405 322T355 344H304V56Q304 43 309 38T328 32H437Q492 32 529 76T585 174Q593 197 599 231T606 276H638L632
0H62V32Z" />
<glyph unicode="&#xc9;" glyph-name="Eacute" horiz-adv-x="690" d="M340 778L429 916Q440 934 452 941T478 948Q496 948 508 937T520 908Q520 881 492 860L360 760L340 778ZM62 32H132Q146 32 151 37T156 56V656Q156 670 151 675T132 680H62V712H624L630 480H598Q598
487 588 525T558 594Q535 634 505 657T438 680H328Q315 680 310 675T304 656V380H355Q382 380 405 402T441 456T455 518H487V205H455Q455 235 442 267T405 322T355 344H304V56Q304 43 309 38T328 32H437Q492 32 529 76T585 174Q593 197 599 231T606 276H638L632
0H62V32Z" />
<glyph unicode="&#xca;" glyph-name="Ecircumflex" horiz-adv-x="690" d="M204 786Q301 837 352 930H392Q441 836 540 786L528 762Q485 777 452 794T372 842Q325 812 292 795T216 762L204 786ZM62 32H132Q146 32 151 37T156 56V656Q156 670 151 675T132 680H62V712H624L630
480H598Q598 487 588 525T558 594Q535 634 505 657T438 680H328Q315 680 310 675T304 656V380H355Q382 380 405 402T441 456T455 518H487V205H455Q455 235 442 267T405 322T355 344H304V56Q304 43 309 38T328 32H437Q492 32 529 76T585 174Q593 197 599 231T606
276H638L632 0H62V32Z" />
<glyph unicode="&#xcb;" glyph-name="Edieresis" horiz-adv-x="690" d="M241 794T224 811T206 854Q206 879 223 896T266 914Q291 914 308 897T326 854Q326 829 309 812T266 794Q241 794 224 811ZM453 794T436 811T418 854Q418 879 435 896T478 914Q503 914 520
897T538 854Q538 829 521 812T478 794Q453 794 436 811ZM62 32H132Q146 32 151 37T156 56V656Q156 670 151 675T132 680H62V712H624L630 480H598Q598 487 588 525T558 594Q535 634 505 657T438 680H328Q315 680 310 675T304 656V380H355Q382 380 405 402T441 456T455
518H487V205H455Q455 235 442 267T405 322T355 344H304V56Q304 43 309 38T328 32H437Q492 32 529 76T585 174Q593 197 599 231T606 276H638L632 0H62V32Z" />
<glyph unicode="&#xcc;" glyph-name="Igrave" horiz-adv-x="440" d="M110 860Q82 881 82 908Q82 926 94 937T124 948Q138 948 150 941T173 916L262 778L242 760L110 860ZM62 32H132Q146 32 151 37T156 56V656Q156 670 151 675T132 680H62V712H398V680H328Q315
680 310 675T304 656V56Q304 43 309 38T328 32H398V0H62V32Z" />
<glyph unicode="&#xcd;" glyph-name="Iacute" horiz-adv-x="440" d="M198 778L287 916Q298 934 310 941T336 948Q354 948 366 937T378 908Q378 881 350 860L218 760L198 778ZM62 32H132Q146 32 151 37T156 56V656Q156 670 151 675T132 680H62V712H398V680H328Q315
680 310 675T304 656V56Q304 43 309 38T328 32H398V0H62V32Z" />
<glyph unicode="&#xce;" glyph-name="Icircumflex" horiz-adv-x="440" d="M62 786Q159 837 210 930H250Q299 836 398 786L386 762Q343 777 310 794T230 842Q183 812 150 795T74 762L62 786ZM62 32H132Q146 32 151 37T156 56V656Q156 670 151 675T132 680H62V712H398V680H328Q315
680 310 675T304 656V56Q304 43 309 38T328 32H398V0H62V32Z" />
<glyph unicode="&#xcf;" glyph-name="Idieresis" horiz-adv-x="440" d="M99 794T82 811T64 854Q64 879 81 896T124 914Q149 914 166 897T184 854Q184 829 167 812T124 794Q99 794 82 811ZM311 794T294 811T276 854Q276 879 293 896T336 914Q361 914 378 897T396
854Q396 829 379 812T336 794Q311 794 294 811ZM62 32H132Q146 32 151 37T156 56V656Q156 670 151 675T132 680H62V712H398V680H328Q315 680 310 675T304 656V56Q304 43 309 38T328 32H398V0H62V32Z" />
<glyph unicode="&#xd0;" glyph-name="Eth" horiz-adv-x="786" d="M62 32H132Q146 32 151 37T156 56V356H62V392H156V656Q156 670 151 675T132 680H62V712H434Q517 712 586 668T695 544T736 362Q736 260 696 177T586 47T434 0H62V32ZM417 32Q481 32 523 76T566
206V506Q566 591 524 635T417 680H328Q315 680 310 675T304 656V392H398V356H304V56Q304 43 309 38T328 32H417Z" />
<glyph unicode="&#xd1;" glyph-name="Ntilde" horiz-adv-x="764" d="M270 825T281 850T312 891T358 908Q380 908 397 903T440 887Q475 872 504 872Q537 872 544 912H566Q566 887 555 862T524 821T478 804Q456 804 439 809T396 825Q361 840 332 840Q299 840 292
800H270Q270 825 281 850ZM218 517H214V136Q214 90 249 61T340 32V0H48V32Q103 32 138 61T174 136V563Q174 574 172 579T163 594L123 654Q113 669 101 674T66 680H48V712H270L590 255V576Q590 622 555 651T464 680V712H756V680Q701 680 666 651T630 576V-18H592L218
517Z" />
<glyph unicode="&#xd2;" glyph-name="Ograve" horiz-adv-x="712" d="M246 860Q218 881 218 908Q218 926 230 937T260 948Q274 948 286 941T309 916L398 778L378 760L246 860ZM289 -18T221 35T111 174T70 356Q70 451 111 537T220 677T366 730Q443 730 511 677T621
538T662 356Q662 261 621 175T512 35T366 -18Q289 -18 221 35ZM427 14T459 58T492 206V506Q492 609 460 653T366 698Q305 698 273 654T240 506V206Q240 103 272 59T366 14Q427 14 459 58Z" />
<glyph unicode="&#xd3;" glyph-name="Oacute" horiz-adv-x="712" d="M334 778L423 916Q434 934 446 941T472 948Q490 948 502 937T514 908Q514 881 486 860L354 760L334 778ZM289 -18T221 35T111 174T70 356Q70 451 111 537T220 677T366 730Q443 730 511 677T621
538T662 356Q662 261 621 175T512 35T366 -18Q289 -18 221 35ZM427 14T459 58T492 206V506Q492 609 460 653T366 698Q305 698 273 654T240 506V206Q240 103 272 59T366 14Q427 14 459 58Z" />
<glyph unicode="&#xd4;" glyph-name="Ocircumflex" horiz-adv-x="712" d="M198 786Q295 837 346 930H386Q435 836 534 786L522 762Q479 777 446 794T366 842Q319 812 286 795T210 762L198 786ZM289 -18T221 35T111 174T70 356Q70 451 111 537T220 677T366 730Q443
730 511 677T621 538T662 356Q662 261 621 175T512 35T366 -18Q289 -18 221 35ZM427 14T459 58T492 206V506Q492 609 460 653T366 698Q305 698 273 654T240 506V206Q240 103 272 59T366 14Q427 14 459 58Z" />
<glyph unicode="&#xd5;" glyph-name="Otilde" horiz-adv-x="712" d="M218 825T229 850T260 891T306 908Q328 908 345 903T388 887Q423 872 452 872Q485 872 492 912H514Q514 887 503 862T472 821T426 804Q404 804 387 809T344 825Q309 840 280 840Q247 840 240
800H218Q218 825 229 850ZM289 -18T221 35T111 174T70 356Q70 451 111 537T220 677T366 730Q443 730 511 677T621 538T662 356Q662 261 621 175T512 35T366 -18Q289 -18 221 35ZM427 14T459 58T492 206V506Q492 609 460 653T366 698Q305 698 273 654T240 506V206Q240
103 272 59T366 14Q427 14 459 58Z" />
<glyph unicode="&#xd6;" glyph-name="Odieresis" horiz-adv-x="712" d="M235 794T218 811T200 854Q200 879 217 896T260 914Q285 914 302 897T320 854Q320 829 303 812T260 794Q235 794 218 811ZM447 794T430 811T412 854Q412 879 429 896T472 914Q497 914 514
897T532 854Q532 829 515 812T472 794Q447 794 430 811ZM289 -18T221 35T111 174T70 356Q70 451 111 537T220 677T366 730Q443 730 511 677T621 538T662 356Q662 261 621 175T512 35T366 -18Q289 -18 221 35ZM427 14T459 58T492 206V506Q492 609 460 653T366 698Q305
698 273 654T240 506V206Q240 103 272 59T366 14Q427 14 459 58Z" />
<glyph unicode="&#xd7;" glyph-name="multiply" horiz-adv-x="940" d="M190 -60L144 -15L424 265L144 545L190 590L470 310L750 590L796 545L516 265L796 -15L750 -60L470 220L190 -60Z" />
<glyph unicode="&#xd8;" glyph-name="Oslash" horiz-adv-x="712" d="M70 6L150 109Q112 161 91 225T70 356Q70 451 111 537T220 677T366 730Q418 730 467 705T557 634L631 730L662 706L582 603Q620 551 641 487T662 356Q662 261 621 175T512 35T366 -18Q314 -18
265 7T175 78L101 -18L70 6ZM490 548Q484 628 452 663T366 698Q305 698 273 654T240 506V225L490 548ZM427 14T459 58T492 206V487L242 164Q248 84 280 49T366 14Q427 14 459 58Z" />
<glyph unicode="&#xd9;" glyph-name="Ugrave" horiz-adv-x="794" d="M310 860Q282 881 282 908Q282 926 294 937T324 948Q338 948 350 941T373 916L462 778L442 760L310 860ZM329 -18T270 17T184 110T156 237V656Q156 670 151 675T132 680H68V712H392V680H328Q315
680 310 675T304 656V198Q304 106 339 64T447 22Q496 22 535 46T596 110T618 198V590Q618 635 588 657T514 680V712H762V680Q719 680 689 658T658 590V208Q658 145 630 94T547 12T419 -18Q329 -18 270 17Z" />
<glyph unicode="&#xda;" glyph-name="Uacute" horiz-adv-x="794" d="M398 778L487 916Q498 934 510 941T536 948Q554 948 566 937T578 908Q578 881 550 860L418 760L398 778ZM329 -18T270 17T184 110T156 237V656Q156 670 151 675T132 680H68V712H392V680H328Q315
680 310 675T304 656V198Q304 106 339 64T447 22Q496 22 535 46T596 110T618 198V590Q618 635 588 657T514 680V712H762V680Q719 680 689 658T658 590V208Q658 145 630 94T547 12T419 -18Q329 -18 270 17Z" />
<glyph unicode="&#xdb;" glyph-name="Ucircumflex" horiz-adv-x="794" d="M262 786Q359 837 410 930H450Q499 836 598 786L586 762Q543 777 510 794T430 842Q383 812 350 795T274 762L262 786ZM329 -18T270 17T184 110T156 237V656Q156 670 151 675T132 680H68V712H392V680H328Q315
680 310 675T304 656V198Q304 106 339 64T447 22Q496 22 535 46T596 110T618 198V590Q618 635 588 657T514 680V712H762V680Q719 680 689 658T658 590V208Q658 145 630 94T547 12T419 -18Q329 -18 270 17Z" />
<glyph unicode="&#xdc;" glyph-name="Udieresis" horiz-adv-x="794" d="M299 794T282 811T264 854Q264 879 281 896T324 914Q349 914 366 897T384 854Q384 829 367 812T324 794Q299 794 282 811ZM511 794T494 811T476 854Q476 879 493 896T536 914Q561 914 578
897T596 854Q596 829 579 812T536 794Q511 794 494 811ZM329 -18T270 17T184 110T156 237V656Q156 670 151 675T132 680H68V712H392V680H328Q315 680 310 675T304 656V198Q304 106 339 64T447 22Q496 22 535 46T596 110T618 198V590Q618 635 588 657T514 680V712H762V680Q719
680 689 658T658 590V208Q658 145 630 94T547 12T419 -18Q329 -18 270 17Z" />
<glyph unicode="&#xdd;" glyph-name="Yacute" horiz-adv-x="736" d="M372 778L461 916Q472 934 484 941T510 948Q528 948 540 937T552 908Q552 881 524 860L392 760L372 778ZM222 32H286Q300 32 305 37T310 56V269L140 636Q128 661 115 670T81 680H46V712H360V680H332Q318
680 311 670T304 648Q304 632 310 620L442 333L534 562Q548 594 548 619Q548 643 535 661T494 680H466V712H714V680H684Q650 680 628 659T593 607L458 278V56Q458 43 463 38T482 32H546V0H222V32Z" />
<glyph unicode="&#xde;" glyph-name="Thorn" horiz-adv-x="702" d="M62 32H132Q146 32 151 37T156 56V656Q156 670 151 675T132 680H62V712H416V680H328Q315 680 310 675T304 656V586H418Q488 586 542 563T627 497T658 400Q658 345 628 302T543 235T418 210H304V56Q304
43 309 38T328 32H416V0H62V32ZM403 242Q455 242 476 284T498 400Q498 473 477 513T403 554H328Q315 554 310 549T304 530V242H403Z" />
<glyph unicode="&#xdf;" glyph-name="germandbls" horiz-adv-x="556" d="M287 -12T255 15T222 84Q222 113 240 130T282 148Q304 148 316 134T328 102Q328 84 311 67Q298 54 298 40Q298 12 335 12Q359 12 369 58T380 206Q380 313 360 364T286 415H251V444H286Q322
444 332 478T342 580Q342 634 329 664T282 694Q249 694 230 654T210 513V0H22V24H78Q87 24 90 27T94 40V456Q94 547 122 605T194 691T291 718Q342 718 378 699T433 647T452 576Q452 515 417 480T327 433V428Q405 408 456 354T508 200Q508 108 463 48T338 -12Q287
-12 255 15Z" />
<glyph unicode="&#xe0;" glyph-name="agrave" horiz-adv-x="508" d="M124 624Q96 645 96 672Q96 690 108 701T138 712Q152 712 164 705T187 680L276 542L256 524L124 624ZM123 -12T85 15T46 106Q46 171 93 208T214 271L288 297V365Q288 416 267 439T213 462Q185
462 165 450T144 415Q144 409 147 401T160 386Q175 377 181 367T188 341Q188 317 171 304T132 290Q106 290 88 307T69 358Q69 396 92 425T151 470T224 486Q296 486 350 448T404 325V72Q404 36 424 36Q442 36 451 66T460 135H488Q488 62 466 28Q455 10 435 -1T389
-12Q348 -12 327 0T292 42H290Q250 -12 178 -12Q123 -12 85 15ZM266 28T288 72V270L232 250Q199 238 184 205T168 115Q168 66 186 47T227 28Q266 28 288 72Z" />
<glyph unicode="&#xe1;" glyph-name="aacute" horiz-adv-x="508" d="M188 542L277 680Q288 698 300 705T326 712Q344 712 356 701T368 672Q368 645 340 624L208 524L188 542ZM123 -12T85 15T46 106Q46 171 93 208T214 271L288 297V365Q288 416 267 439T213 462Q185
462 165 450T144 415Q144 409 147 401T160 386Q175 377 181 367T188 341Q188 317 171 304T132 290Q106 290 88 307T69 358Q69 396 92 425T151 470T224 486Q296 486 350 448T404 325V72Q404 36 424 36Q442 36 451 66T460 135H488Q488 62 466 28Q455 10 435 -1T389
-12Q348 -12 327 0T292 42H290Q250 -12 178 -12Q123 -12 85 15ZM266 28T288 72V270L232 250Q199 238 184 205T168 115Q168 66 186 47T227 28Q266 28 288 72Z" />
<glyph unicode="&#xe2;" glyph-name="acircumflex" horiz-adv-x="508" d="M82 548Q132 580 156 619T198 708H266Q283 659 307 620T382 548L366 524Q331 541 294 568T232 620Q208 595 171 568T98 524L82 548ZM123 -12T85 15T46 106Q46 171 93 208T214 271L288 297V365Q288
416 267 439T213 462Q185 462 165 450T144 415Q144 409 147 401T160 386Q175 377 181 367T188 341Q188 317 171 304T132 290Q106 290 88 307T69 358Q69 396 92 425T151 470T224 486Q296 486 350 448T404 325V72Q404 36 424 36Q442 36 451 66T460 135H488Q488 62
466 28Q455 10 435 -1T389 -12Q348 -12 327 0T292 42H290Q250 -12 178 -12Q123 -12 85 15ZM266 28T288 72V270L232 250Q199 238 184 205T168 115Q168 66 186 47T227 28Q266 28 288 72Z" />
<glyph unicode="&#xe3;" glyph-name="atilde" horiz-adv-x="508" d="M84 589T95 614T126 655T172 672Q194 672 211 667T254 651Q289 636 318 636Q351 636 358 676H380Q380 651 369 626T338 585T292 568Q270 568 253 573T210 589Q175 604 146 604Q113 604 106 564H84Q84
589 95 614ZM123 -12T85 15T46 106Q46 171 93 208T214 271L288 297V365Q288 416 267 439T213 462Q185 462 165 450T144 415Q144 409 147 401T160 386Q175 377 181 367T188 341Q188 317 171 304T132 290Q106 290 88 307T69 358Q69 396 92 425T151 470T224 486Q296
486 350 448T404 325V72Q404 36 424 36Q442 36 451 66T460 135H488Q488 62 466 28Q455 10 435 -1T389 -12Q348 -12 327 0T292 42H290Q250 -12 178 -12Q123 -12 85 15ZM266 28T288 72V270L232 250Q199 238 184 205T168 115Q168 66 186 47T227 28Q266 28 288 72Z"
/>
<glyph unicode="&#xe4;" glyph-name="adieresis" horiz-adv-x="508" d="M111 558T94 575T76 618Q76 643 93 660T136 678Q161 678 178 661T196 618Q196 593 179 576T136 558Q111 558 94 575ZM303 558T286 575T268 618Q268 643 285 660T328 678Q353 678 370 661T388
618Q388 593 371 576T328 558Q303 558 286 575ZM123 -12T85 15T46 106Q46 171 93 208T214 271L288 297V365Q288 416 267 439T213 462Q185 462 165 450T144 415Q144 409 147 401T160 386Q175 377 181 367T188 341Q188 317 171 304T132 290Q106 290 88 307T69 358Q69
396 92 425T151 470T224 486Q296 486 350 448T404 325V72Q404 36 424 36Q442 36 451 66T460 135H488Q488 62 466 28Q455 10 435 -1T389 -12Q348 -12 327 0T292 42H290Q250 -12 178 -12Q123 -12 85 15ZM266 28T288 72V270L232 250Q199 238 184 205T168 115Q168 66
186 47T227 28Q266 28 288 72Z" />
<glyph unicode="&#xe5;" glyph-name="aring" horiz-adv-x="508" d="M187 516T156 547T125 623Q125 668 156 699T232 730Q277 730 308 699T339 623Q339 578 308 547T232 516Q187 516 156 547ZM261 560T278 577T295 623Q295 652 278 669T232 686Q204 686 187 669T169
623Q169 595 186 578T232 560Q261 560 278 577ZM123 -12T85 15T46 106Q46 171 93 208T214 271L288 297V365Q288 416 267 439T213 462Q185 462 165 450T144 415Q144 409 147 401T160 386Q175 377 181 367T188 341Q188 317 171 304T132 290Q106 290 88 307T69 358Q69
396 92 425T151 470T224 486Q296 486 350 448T404 325V72Q404 36 424 36Q442 36 451 66T460 135H488Q488 62 466 28Q455 10 435 -1T389 -12Q348 -12 327 0T292 42H290Q250 -12 178 -12Q123 -12 85 15ZM266 28T288 72V270L232 250Q199 238 184 205T168 115Q168 66
186 47T227 28Q266 28 288 72Z" />
<glyph unicode="&#xe6;" glyph-name="ae" horiz-adv-x="700" d="M122 -12T84 16T46 107Q46 173 94 209T214 271L288 297V365Q288 416 266 439T211 462Q184 462 164 450T144 415Q144 409 147 401T160 386Q175 377 181 367T188 341Q188 317 171 304T132 290Q106
290 88 307T69 358Q69 397 91 426T147 470T218 486Q298 486 350 442Q375 465 409 475T478 486Q539 486 583 443T641 328Q648 296 648 228H404Q404 180 406 153T415 99Q424 62 449 40T509 18Q558 18 588 61T624 162H650Q644 93 605 41T489 -12Q440 -12 397 8T328
66Q301 29 265 9T174 -12Q122 -12 84 16ZM532 256Q532 361 519 411T468 462Q431 462 418 412T404 256H532ZM263 28T288 66V269L232 250Q168 228 168 115Q168 66 186 47T224 28Q263 28 288 66Z" />
<glyph unicode="&#xe7;" glyph-name="ccedilla" horiz-adv-x="468" d="M216 -208T186 -191T156 -143Q156 -128 163 -120T185 -111Q200 -111 206 -120T216 -148Q224 -186 265 -186Q287 -186 299 -173T312 -140Q312 -121 300 -110T264 -98H217L231 -10Q177 -2 135
32T71 120T48 237Q48 305 74 362T149 452T259 486Q307 486 339 466T388 415T404 351Q404 315 382 289T329 262Q306 262 291 275T276 312Q276 339 308 365Q332 385 332 406Q332 427 317 444T267 462Q220 462 198 403T176 237Q176 184 178 155T187 99Q196 62 221
40T281 18Q330 18 360 61T396 162H422Q416 93 377 41T261 -12H255L251 -42H276Q312 -42 336 -63T360 -117Q360 -155 334 -181T251 -208Q216 -208 186 -191Z" />
<glyph unicode="&#xe8;" glyph-name="egrave" horiz-adv-x="472" d="M132 624Q104 645 104 672Q104 690 116 701T146 712Q160 712 172 705T195 680L284 542L264 524L132 624ZM199 -12T151 21T75 112T48 237Q48 307 75 364T148 453T250 486Q311 486 355 443T413
328Q420 296 420 228H176Q176 180 178 153T187 99Q196 62 221 40T281 18Q330 18 360 61T396 162H422Q416 93 377 41T261 -12Q199 -12 151 21ZM304 256Q304 361 291 411T240 462Q203 462 190 412T176 256H304Z" />
<glyph unicode="&#xe9;" glyph-name="eacute" horiz-adv-x="472" d="M196 542L285 680Q296 698 308 705T334 712Q352 712 364 701T376 672Q376 645 348 624L216 524L196 542ZM199 -12T151 21T75 112T48 237Q48 307 75 364T148 453T250 486Q311 486 355 443T413
328Q420 296 420 228H176Q176 180 178 153T187 99Q196 62 221 40T281 18Q330 18 360 61T396 162H422Q416 93 377 41T261 -12Q199 -12 151 21ZM304 256Q304 361 291 411T240 462Q203 462 190 412T176 256H304Z" />
<glyph unicode="&#xea;" glyph-name="ecircumflex" horiz-adv-x="472" d="M90 548Q140 580 164 619T206 708H274Q291 659 315 620T390 548L374 524Q339 541 302 568T240 620Q216 595 179 568T106 524L90 548ZM199 -12T151 21T75 112T48 237Q48 307 75 364T148
453T250 486Q311 486 355 443T413 328Q420 296 420 228H176Q176 180 178 153T187 99Q196 62 221 40T281 18Q330 18 360 61T396 162H422Q416 93 377 41T261 -12Q199 -12 151 21ZM304 256Q304 361 291 411T240 462Q203 462 190 412T176 256H304Z" />
<glyph unicode="&#xeb;" glyph-name="edieresis" horiz-adv-x="472" d="M119 558T102 575T84 618Q84 643 101 660T144 678Q169 678 186 661T204 618Q204 593 187 576T144 558Q119 558 102 575ZM311 558T294 575T276 618Q276 643 293 660T336 678Q361 678 378 661T396
618Q396 593 379 576T336 558Q311 558 294 575ZM199 -12T151 21T75 112T48 237Q48 307 75 364T148 453T250 486Q311 486 355 443T413 328Q420 296 420 228H176Q176 180 178 153T187 99Q196 62 221 40T281 18Q330 18 360 61T396 162H422Q416 93 377 41T261 -12Q199
-12 151 21ZM304 256Q304 361 291 411T240 462Q203 462 190 412T176 256H304Z" />
<glyph unicode="&#xec;" glyph-name="igrave" horiz-adv-x="296" d="M40 624Q12 645 12 672Q12 690 24 701T54 712Q68 712 80 705T103 680L192 542L172 524L40 624ZM40 24H78Q87 24 90 27T94 40V434Q94 443 91 446T78 450H40V474H210V40Q210 31 213 28T226 24H264V0H40V24Z"
/>
<glyph unicode="&#xed;" glyph-name="iacute" horiz-adv-x="296" d="M104 542L193 680Q204 698 216 705T242 712Q260 712 272 701T284 672Q284 645 256 624L124 524L104 542ZM40 24H78Q87 24 90 27T94 40V434Q94 443 91 446T78 450H40V474H210V40Q210 31 213 28T226
24H264V0H40V24Z" />
<glyph unicode="&#xee;" glyph-name="icircumflex" horiz-adv-x="296" d="M-2 548Q48 580 72 619T114 708H182Q199 659 223 620T298 548L282 524Q247 541 210 568T148 620Q124 595 87 568T14 524L-2 548ZM40 24H78Q87 24 90 27T94 40V434Q94 443 91 446T78 450H40V474H210V40Q210
31 213 28T226 24H264V0H40V24Z" />
<glyph unicode="&#xef;" glyph-name="idieresis" horiz-adv-x="296" d="M41 558T24 575T6 618Q6 643 23 660T66 678Q91 678 108 661T126 618Q126 593 109 576T66 558Q41 558 24 575ZM205 558T188 575T170 618Q170 643 187 660T230 678Q255 678 272 661T290 618Q290
593 273 576T230 558Q205 558 188 575ZM40 24H78Q87 24 90 27T94 40V434Q94 443 91 446T78 450H40V474H210V40Q210 31 213 28T226 24H264V0H40V24Z" />
<glyph unicode="&#xf0;" glyph-name="eth" horiz-adv-x="510" d="M198 -12T151 21T76 111T48 237Q48 306 74 363T145 453T242 486Q264 486 282 481L287 486Q260 534 222 585L128 530L114 554L205 608Q162 661 127 695V712H247Q267 691 294 660L390 716L404 692L312
638Q343 598 388 526Q426 465 444 392T462 243Q462 161 434 104T359 17T255 -12Q198 -12 151 21ZM294 12T314 64T334 237Q334 357 314 409T255 462Q216 462 196 410T176 237Q176 117 196 65T255 12Q294 12 314 64Z" />
<glyph unicode="&#xf1;" glyph-name="ntilde" horiz-adv-x="556" d="M130 589T141 614T172 655T218 672Q240 672 257 667T300 651Q335 636 364 636Q397 636 404 676H426Q426 651 415 626T384 585T338 568Q316 568 299 573T256 589Q221 604 192 604Q159 604 152
564H130Q130 589 141 614ZM40 24H78Q87 24 90 27T94 40V434Q94 443 91 446T78 450H40V474H210V385L215 384Q235 431 266 458T339 486Q364 486 382 481T416 464Q441 446 455 414T470 348V40Q470 31 473 28T486 24H524V0H306V24H338Q347 24 350 27T354 40V377Q354
454 308 454Q287 454 264 426T226 352T210 254V40Q210 31 213 28T226 24H258V0H40V24Z" />
<glyph unicode="&#xf2;" glyph-name="ograve" horiz-adv-x="504" d="M144 624Q116 645 116 672Q116 690 128 701T158 712Q172 712 184 705T207 680L296 542L276 524L144 624ZM198 -12T151 20T76 110T48 237Q48 307 76 364T151 453T252 486Q306 486 353 454T428
364T456 237Q456 167 428 110T353 21T252 -12Q198 -12 151 20ZM295 12T311 65T328 237Q328 356 312 409T252 462Q209 462 193 409T176 237Q176 118 192 65T252 12Q295 12 311 65Z" />
<glyph unicode="&#xf3;" glyph-name="oacute" horiz-adv-x="504" d="M208 542L297 680Q308 698 320 705T346 712Q364 712 376 701T388 672Q388 645 360 624L228 524L208 542ZM198 -12T151 20T76 110T48 237Q48 307 76 364T151 453T252 486Q306 486 353 454T428
364T456 237Q456 167 428 110T353 21T252 -12Q198 -12 151 20ZM295 12T311 65T328 237Q328 356 312 409T252 462Q209 462 193 409T176 237Q176 118 192 65T252 12Q295 12 311 65Z" />
<glyph unicode="&#xf4;" glyph-name="ocircumflex" horiz-adv-x="504" d="M102 548Q152 580 176 619T218 708H286Q303 659 327 620T402 548L386 524Q351 541 314 568T252 620Q228 595 191 568T118 524L102 548ZM198 -12T151 20T76 110T48 237Q48 307 76 364T151
453T252 486Q306 486 353 454T428 364T456 237Q456 167 428 110T353 21T252 -12Q198 -12 151 20ZM295 12T311 65T328 237Q328 356 312 409T252 462Q209 462 193 409T176 237Q176 118 192 65T252 12Q295 12 311 65Z" />
<glyph unicode="&#xf5;" glyph-name="otilde" horiz-adv-x="504" d="M104 589T115 614T146 655T192 672Q214 672 231 667T274 651Q309 636 338 636Q371 636 378 676H400Q400 651 389 626T358 585T312 568Q290 568 273 573T230 589Q195 604 166 604Q133 604 126
564H104Q104 589 115 614ZM198 -12T151 20T76 110T48 237Q48 307 76 364T151 453T252 486Q306 486 353 454T428 364T456 237Q456 167 428 110T353 21T252 -12Q198 -12 151 20ZM295 12T311 65T328 237Q328 356 312 409T252 462Q209 462 193 409T176 237Q176 118
192 65T252 12Q295 12 311 65Z" />
<glyph unicode="&#xf6;" glyph-name="odieresis" horiz-adv-x="504" d="M131 558T114 575T96 618Q96 643 113 660T156 678Q181 678 198 661T216 618Q216 593 199 576T156 558Q131 558 114 575ZM323 558T306 575T288 618Q288 643 305 660T348 678Q373 678 390 661T408
618Q408 593 391 576T348 558Q323 558 306 575ZM198 -12T151 20T76 110T48 237Q48 307 76 364T151 453T252 486Q306 486 353 454T428 364T456 237Q456 167 428 110T353 21T252 -12Q198 -12 151 20ZM295 12T311 65T328 237Q328 356 312 409T252 462Q209 462 193
409T176 237Q176 118 192 65T252 12Q295 12 311 65Z" />
<glyph unicode="&#xf7;" glyph-name="divide" horiz-adv-x="940" d="M436 450T414 472T392 528Q392 562 414 584T470 606Q504 606 526 584T548 528Q548 494 526 472T470 450Q436 450 414 472ZM42 240V304H898V240H42ZM436 -66T414 -44T392 12Q392 46 414 68T470
90Q504 90 526 68T548 12Q548 -22 526 -44T470 -66Q436 -66 414 -44Z" />
<glyph unicode="&#xf8;" glyph-name="oslash" horiz-adv-x="504" d="M48 6L100 71Q48 141 48 237Q48 307 76 364T151 453T252 486Q289 486 323 471T385 426L434 486L456 468L404 403Q456 333 456 237Q456 167 428 110T353 21T252 -12Q215 -12 181 3T119 48L70
-12L48 6ZM323 348Q317 407 301 434T252 462Q208 462 192 410T176 237Q176 188 177 167L323 348ZM295 12T311 65T328 237Q328 286 327 307L180 125Q186 67 203 40T252 12Q295 12 311 65Z" />
<glyph unicode="&#xf9;" glyph-name="ugrave" horiz-adv-x="550" d="M150 624Q122 645 122 672Q122 690 134 701T164 712Q178 712 190 705T213 680L302 542L282 524L150 624ZM194 -12T176 -7T142 10Q117 28 103 60T88 126V434Q88 443 85 446T72 450H24V474H204V97Q204
20 250 20Q271 20 294 48T332 122T348 220V434Q348 443 345 446T332 450H284V474H464V40Q464 31 467 28T480 24H518V0H348V89L343 90Q323 43 292 16T219 -12Q194 -12 176 -7Z" />
<glyph unicode="&#xfa;" glyph-name="uacute" horiz-adv-x="550" d="M214 542L303 680Q314 698 326 705T352 712Q370 712 382 701T394 672Q394 645 366 624L234 524L214 542ZM194 -12T176 -7T142 10Q117 28 103 60T88 126V434Q88 443 85 446T72 450H24V474H204V97Q204
20 250 20Q271 20 294 48T332 122T348 220V434Q348 443 345 446T332 450H284V474H464V40Q464 31 467 28T480 24H518V0H348V89L343 90Q323 43 292 16T219 -12Q194 -12 176 -7Z" />
<glyph unicode="&#xfb;" glyph-name="ucircumflex" horiz-adv-x="550" d="M108 548Q158 580 182 619T224 708H292Q309 659 333 620T408 548L392 524Q357 541 320 568T258 620Q234 595 197 568T124 524L108 548ZM194 -12T176 -7T142 10Q117 28 103 60T88 126V434Q88
443 85 446T72 450H24V474H204V97Q204 20 250 20Q271 20 294 48T332 122T348 220V434Q348 443 345 446T332 450H284V474H464V40Q464 31 467 28T480 24H518V0H348V89L343 90Q323 43 292 16T219 -12Q194 -12 176 -7Z" />
<glyph unicode="&#xfc;" glyph-name="udieresis" horiz-adv-x="550" d="M137 558T120 575T102 618Q102 643 119 660T162 678Q187 678 204 661T222 618Q222 593 205 576T162 558Q137 558 120 575ZM329 558T312 575T294 618Q294 643 311 660T354 678Q379 678 396
661T414 618Q414 593 397 576T354 558Q329 558 312 575ZM194 -12T176 -7T142 10Q117 28 103 60T88 126V434Q88 443 85 446T72 450H24V474H204V97Q204 20 250 20Q271 20 294 48T332 122T348 220V434Q348 443 345 446T332 450H284V474H464V40Q464 31 467 28T480 24H518V0H348V89L343
90Q323 43 292 16T219 -12Q194 -12 176 -7Z" />
<glyph unicode="&#xfd;" glyph-name="yacute" horiz-adv-x="524" d="M226 542L315 680Q326 698 338 705T364 712Q382 712 394 701T406 672Q406 645 378 624L246 524L226 542ZM110 -238T85 -213T60 -147Q60 -114 81 -89T134 -64Q158 -64 173 -78T189 -114Q189 -127
184 -138T170 -156Q156 -168 156 -182Q156 -191 161 -198T179 -206Q196 -206 207 -185T229 -132L262 -22L89 392Q75 425 64 437T27 450H12V474H257V450H228Q219 450 212 443T204 424Q204 413 211 396L314 149L379 368Q386 396 386 412Q386 427 378 438T355 450H329V474H494V450H472Q454
450 438 435T412 388L260 -117Q225 -238 151 -238Q110 -238 85 -213Z" />
<glyph unicode="&#xfe;" glyph-name="thorn" horiz-adv-x="524" d="M20 -209L80 -178Q92 -171 92 -150V584Q92 602 82 602Q79 602 71 598L35 579L20 608L164 684H208V397L213 395Q246 446 283 466T364 486Q413 486 445 452T478 358Q478 296 436 223T323 91Q294
67 268 51T208 18V-149L35 -238L20 -209ZM234 59T246 67T278 94Q356 168 356 366Q356 442 311 442Q291 442 267 420T225 355T208 253V45Q234 59 246 67Z" />
<glyph unicode="&#xff;" glyph-name="ydieresis" horiz-adv-x="524" d="M149 558T132 575T114 618Q114 643 131 660T174 678Q199 678 216 661T234 618Q234 593 217 576T174 558Q149 558 132 575ZM341 558T324 575T306 618Q306 643 323 660T366 678Q391 678 408
661T426 618Q426 593 409 576T366 558Q341 558 324 575ZM110 -238T85 -213T60 -147Q60 -114 81 -89T134 -64Q158 -64 173 -78T189 -114Q189 -127 184 -138T170 -156Q156 -168 156 -182Q156 -191 161 -198T179 -206Q196 -206 207 -185T229 -132L262 -22L89 392Q75
425 64 437T27 450H12V474H257V450H228Q219 450 212 443T204 424Q204 413 211 396L314 149L379 368Q386 396 386 412Q386 427 378 438T355 450H329V474H494V450H472Q454 450 438 435T412 388L260 -117Q225 -238 151 -238Q110 -238 85 -213Z" />
<glyph unicode="&#x2013;" glyph-name="endash" horiz-adv-x="620" d="M60 240V296H560V240H60Z" />
<glyph unicode="&#x2014;" glyph-name="emdash" horiz-adv-x="1000" d="M60 240V296H940V240H60Z" />
<glyph unicode="&#x2018;" glyph-name="quoteleft" horiz-adv-x="280" d="M99 386T71 418T42 502Q42 584 89 643T214 730L228 702Q165 679 127 636T88 544Q88 537 92 532T105 526Q113 526 129 534Q147 543 163 543Q191 543 212 524T234 471Q234 431 208 409T148
386Q99 386 71 418Z" />
<glyph unicode="&#x2019;" glyph-name="quoteright" horiz-adv-x="280" d="M52 414Q115 437 153 480T192 572Q192 579 188 584T175 590Q167 590 151 582Q133 573 117 573Q89 573 68 592T46 645Q46 685 72 707T132 730Q181 730 209 698T238 614Q238 532 191 473T66
386L52 414Z" />
<glyph unicode="&#x201a;" glyph-name="quotesinglbase" horiz-adv-x="280" d="M52 -168Q115 -145 153 -102T192 -10Q192 -3 188 2T175 8Q167 8 151 0Q133 -9 117 -9Q89 -9 68 10T46 63Q46 103 72 125T132 148Q181 148 209 116T238 32Q238 -50 191 -109T66 -196L52 -168Z" />
<glyph unicode="&#x201c;" glyph-name="quotedblleft" horiz-adv-x="500" d="M99 386T71 418T42 502Q42 584 89 643T214 730L228 702Q165 679 127 636T88 544Q88 537 92 532T105 526Q113 526 129 534Q147 543 163 543Q191 543 212 524T234 471Q234 431 208 409T148
386Q99 386 71 418ZM319 386T291 418T262 502Q262 584 309 643T434 730L448 702Q385 679 347 636T308 544Q308 537 312 532T325 526Q333 526 349 534Q367 543 383 543Q411 543 432 524T454 471Q454 431 428 409T368 386Q319 386 291 418Z" />
<glyph unicode="&#x201d;" glyph-name="quotedblright" horiz-adv-x="500" d="M52 414Q115 437 153 480T192 572Q192 579 188 584T175 590Q167 590 151 582Q133 573 117 573Q89 573 68 592T46 645Q46 685 72 707T132 730Q181 730 209 698T238 614Q238 532 191
473T66 386L52 414ZM272 414Q335 437 373 480T412 572Q412 579 408 584T395 590Q387 590 371 582Q353 573 337 573Q309 573 288 592T266 645Q266 685 292 707T352 730Q401 730 429 698T458 614Q458 532 411 473T286 386L272 414Z" />
<glyph unicode="&#x201e;" glyph-name="quotedblbase" horiz-adv-x="500" d="M52 -168Q115 -145 153 -102T192 -10Q192 -3 188 2T175 8Q167 8 151 0Q133 -9 117 -9Q89 -9 68 10T46 63Q46 103 72 125T132 148Q181 148 209 116T238 32Q238 -50 191 -109T66 -196L52
-168ZM272 -168Q335 -145 373 -102T412 -10Q412 -3 408 2T395 8Q387 8 371 0Q353 -9 337 -9Q309 -9 288 10T266 63Q266 103 292 125T352 148Q401 148 429 116T458 32Q458 -50 411 -109T286 -196L272 -168Z" />
<glyph unicode="&#x2022;" glyph-name="bullet" horiz-adv-x="500" d="M206 194T169 215T111 273T90 354Q90 398 111 435T169 493T250 514Q294 514 331 493T389 435T410 354Q410 310 389 273T331 215T250 194Q206 194 169 215Z" />
<glyph unicode="&#x2039;" glyph-name="guilsinglleft" horiz-adv-x="330" d="M108 103T108 237Q108 371 232 446L248 430Q225 405 215 383T200 328T196 237Q196 178 200 146T214 92T248 44L232 28Q108 103 108 237Z" />
<glyph unicode="&#x203a;" glyph-name="guilsinglright" horiz-adv-x="330" d="M82 44Q105 69 115 91T130 146T134 237Q134 296 130 328T116 382T82 430L98 446Q222 371 222 237Q222 103 98 28L82 44Z" />
</font>
</defs>
</svg>
